Ousama Game The Animation | Télécharger Part 3 | Operacion Red Sparrow (2018) [BrRip 720p...

Скачать через торрент [VIDEO] Волна Bølgen бесплатно русская версия torrent активатор

Статистика раздачи
Размер:  1.92 GB   |    Зарегистрирован:  2 года 6 месяцев   |    .torrent скачан:  19 раз   |   
Раздают:  1  
   
загрузка...
 
Автор Сообщение

Galfimbul

avatar Galfimbul


Волна / Bølgen«И содрогнется земля. И обрушатся горы. И поднимется цунами»
Год выпуска: 2015
Оригинальное название: Bølgen
Страна: Норвегия
Жанр: боевик, триллер, драма
Возраст: 16+

Режиссер: Роар Утхауг

В ролях: Томас Бо Ларсен, Кристоффер Йонер, Эни Даль Торп, Фридтьов Сохейм, Йонас Хофф Офтебро, Ладо Хаджик, Артур Бернинг, Эдит Хогенруд-Сэнд, Элли Харбоа, Метта Агнета Хорн

Описание: Сигнал тревоги разносится над спящим городом. То, чего так боялись сейсмологи, сбылось — сильнейший тектонический сдвиг вызывает обрушение горного массива. Теперь гигантское смертоносное цунами движется прямо на людей. Опытный геолог Кристиан Айкорд оказывается в эпицентре самого страшного кошмара своей жизни.

Продолжительность: 01:44:55
Перевод: Профессиональный многоголосый
Оригинальная дорожка: нет

Автор рипа:

Качество видео: BDRip Исходник: Blu-Ray Remux (1080p) Формат: mp4
Видео кодек: MPEG-4 AVC Аудио кодек: AAC
Видео: 1280x536 at 24.000 fps, AVC at 2 500 kbps avg, 0.152 bit/pixel
Аудио №1 Rus: 48.0 KHz, AAC, 2 ch, CBR, 128.0 Kbps
Субтитры: нет
Навигация по главам: нет
GeneralComplete name : E:\Volna.2015_KinoGadget.mp4Format : MPEG-4Format profile : Base MediaCodec ID : isomFile size : 1.92 GiBDuration : 1h 44mnOverall bit rate mode : VariableOverall bit rate : 2 621 KbpsMovie name : ВолнаPerformer : Роар УтхаугGenre : Action, Drama, ThrillerContentType : Short FilmRecorded date : 2015Encoded date : UTC 2015-12-23 17:31:05Tagged date : UTC 2015-12-23 17:41:47Cover : Yes

LongDescription : Сигнал тревоги разносится над спящим городом. То, чего так боялись сейсмологи, сбылось — сильнейший тектонический сдвиг вызывает обрушение горного массива. Теперь гигантское смертоносное цунами движется прямо на людей. Опытный геолог Кристиан Айкорд оказывается в эпицентре самого страшного кошмара своей жизни.HDVideo : Yes

VideoID : 1Format : AVCFormat/Info : Advanced Video CodecFormat profile : [email protected] settings, CABAC : YesFormat settings, ReFrames : 11 framesCodec ID : avc1Codec ID/Info : Advanced Video CodingDuration : 1h 44mnBit rate : 2 500 KbpsMaximum bit rate : 11.7 MbpsWidth : 1 280 pixelsHeight : 536 pixelsDisplay aspect ratio : 2.40:1Frame rate mode : ConstantFrame rate : 24.000 fpsColor space : YUVChroma subsampling : 4:2:0Bit depth : 8 bitsScan type : ProgressiveBits/(Pixel*Frame) : 0.152Stream size : 1.82 GiB (95%)Writing library : x264 core 148 r2638 7599210Encoding settings : cabac=1 / ref=11 / deblock=1:-1:-1 / analyse=0x3:0x133 / me=umh / subme=9 / psy=1 / psy_rd=1.00:0.00 / mixed_ref=1 / me_range=32 / chroma_me=1 / trellis=2 / 8x8dct=1 / cqm=0 / deadzone=21,11 / fast_pskip=1 / chroma_qp_offset=-2 / threads=3 / lookahead_threads=1 / sliced_threads=0 / nr=0 / decimate=1 / interlaced=0 / bluray_compat=0 / constrained_intra=0 / bframes=8 / b_pyramid=2 / b_adapt=2 / b_bias=0 / direct=3 / weightb=1 / open_gop=0 / weightp=2 / keyint=240 / keyint_min=24 / scenecut=40 / intra_refresh=0 / rc_lookahead=60 / rc=2pass / mbtree=1 / bitrate=2500 / ratetol=1.0 / qcomp=0.60 / qpmin=0 / qpmax=69 / qpstep=4 / cplxblur=20.0 / qblur=0.5 / ip_ratio=1.40 / aq=1:1.00Language : EnglishEncoded date : UTC 2015-12-23 17:27:12Tagged date : UTC 2015-12-23 17:32:34

AudioID : 2Format : AACFormat/Info : Advanced Audio CodecFormat profile : LCCodec ID : 40Duration : 1h 44mnBit rate mode : VariableBit rate : 128 KbpsMaximum bit rate : 135 KbpsChannel count : 2 channelsChannel positions : Front: L RSampling rate : 48.0 KHzCompression mode : LossyStream size : 96.0 MiB (5%)Language : RussianEncoded date : UTC 2015-12-23 17:06:08Tagged date : UTC 2015-12-23 17:32:34
[url=...39840292] [/url]

Трекер:  [ 23-Дек-2015 22:00 ]

  

Скачать .torrent

Размер .torrent файла 19 KB


Размер: 1.92 GB
Хэш (hash) релиза: 32bb6a2822c44e5eabac5c849c6a5460234bf7dc

Еще никто не оставлял запись к записи скачать торрент [VIDEO] Волна Bølgen . Будь первым!

!Обратная связь