1129 The Pirates of Somalia (2017) | Running Man Episode 1 | Fantasia

Скачать через торрент [VIDEO] Перевозчик: Наследие The Transporter Refueled бесплатно русская версия torrent активатор

Статистика раздачи
Размер:  1.69 GB   |    Зарегистрирован:  2 года 6 месяцев   |    .torrent скачан:  23 раза   |   
Раздают:  1  
   
загрузка...
 
Автор Сообщение

Galfimbul

avatar Galfimbul


Перевозчик: Наследие / The Transporter Refueled
Год выпуска: 2015
Оригинальное название: The Transporter Refueled
Страна: Франция, Китай, Бельгия
Жанр: боевик, триллер, криминал
Возраст: 16+

Режиссер: Камиль Деламарр

В ролях: Эд Скрейн, Рэй Стивенсон, Лоан Шабаноль, Габриэлла Райт, Татьяна Пайкович, Венься Ю, Радивойе Буквич, Ноэми Ленуар, Юрий Колокольников, Ленн Кудрявицки, Самир Гесми, Анатоль Таубман, Робби Нок, Майкл Моррис, Нэш Новчич, Йохен Хаэгеле, Седрик Шевальм, Джером Зайбала, Стефан Морено-Карпио, Лорен Ферраро

Описание: Фрэнк Мартин — самый высококвалифицированный перевозчик, которого только можно нанять за деньги. Ставки выше, технологии поднялись на более высокий уровень, но правила те же: никогда не изменять условия сделки, никаких имен и никогда не открывать груз.

Когда Фрэнка нанимает хитроумная красотка Анна и ее три очаровательные сообщницы, он быстро выясняет, что его водят за нос. Анна и ее команда похитили его отца, чтобы заставить Фрэнка помочь им разобраться с группой безжалостных торговцев людьми.

Продолжительность: 01:32:02
Перевод: Дублированный
Оригинальная дорожка: нет

Автор рипа:

Качество видео: BDRip Исходник: Blu-Ray Remux (1080i) Формат: mp4
Видео кодек: MPEG-4 AVC Аудио кодек: AAC
Видео: 1280x536 at 25.000 fps, AVC at 2 500 kbps avg, 0.146 bit/pixel
Аудио №1 Rus: 48.0 KHz, AAC, 2 ch, CBR, 128.0 Kbps
Субтитры: нет
Навигация по главам: нет
GeneralComplete name : E:\Perevozchik_nasledie.2015_KinoGadget.mp4Format : MPEG-4Format profile : Base MediaCodec ID : isomFile size : 1.69 GiBDuration : 1h 32mnOverall bit rate mode : VariableOverall bit rate : 2 633 KbpsMovie name : Перевозчик: НаследиеPerformer : Камиль ДеламаррGenre : Action, Crime, ThrillerContentType : Short FilmRecorded date : 2015Encoded date : UTC 2015-12-23 18:05:27Tagged date : UTC 2015-12-23 18:14:08Cover : YesContentRating : mpaa|PG-13|300|

LongDescription : Фрэнк Мартин — самый высококвалифицированный перевозчик, которого только можно нанять за деньги. Ставки выше, технологии поднялись на более высокий уровень, но правила те же: никогда не изменять условия сделки, никаких имен и никогда не открывать груз.HDVideo : Yes

VideoID : 1Format : AVCFormat/Info : Advanced Video CodecFormat profile : [email protected] settings, CABAC : YesFormat settings, ReFrames : 11 framesCodec ID : avc1Codec ID/Info : Advanced Video CodingDuration : 1h 32mnBit rate : 2 500 KbpsMaximum bit rate : 14.5 MbpsWidth : 1 280 pixelsHeight : 536 pixelsDisplay aspect ratio : 2.40:1Frame rate mode : ConstantFrame rate : 25.000 fpsColor space : YUVChroma subsampling : 4:2:0Bit depth : 8 bitsScan type : ProgressiveBits/(Pixel*Frame) : 0.146Stream size : 1.60 GiB (95%)Writing library : x264 core 148 r2638 7599210Encoding settings : cabac=1 / ref=11 / deblock=1:-1:-1 / analyse=0x3:0x133 / me=umh / subme=9 / psy=1 / psy_rd=1.00:0.00 / mixed_ref=1 / me_range=32 / chroma_me=1 / trellis=2 / 8x8dct=1 / cqm=0 / deadzone=21,11 / fast_pskip=1 / chroma_qp_offset=-2 / threads=3 / lookahead_threads=1 / sliced_threads=0 / nr=0 / decimate=1 / interlaced=0 / bluray_compat=0 / constrained_intra=0 / bframes=8 / b_pyramid=2 / b_adapt=2 / b_bias=0 / direct=3 / weightb=1 / open_gop=0 / weightp=2 / keyint=250 / keyint_min=25 / scenecut=40 / intra_refresh=0 / rc_lookahead=60 / rc=2pass / mbtree=1 / bitrate=2500 / ratetol=1.0 / qcomp=0.60 / qpmin=0 / qpmax=69 / qpstep=4 / cplxblur=20.0 / qblur=0.5 / ip_ratio=1.40 / aq=1:1.00Language : EnglishEncoded date : UTC 2015-12-23 18:01:20Tagged date : UTC 2015-12-23 18:06:42

AudioID : 2Format : AACFormat/Info : Advanced Audio CodecFormat profile : LCCodec ID : 40Duration : 1h 32mnBit rate mode : VariableBit rate : 128 KbpsMaximum bit rate : 135 KbpsChannel count : 2 channelsChannel positions : Front: L RSampling rate : 48.0 KHzCompression mode : LossyStream size : 84.3 MiB (5%)Language : RussianEncoded date : UTC 2015-12-23 17:56:47Tagged date : UTC 2015-12-23 18:06:42
[url=...39840292] [/url]

Трекер:  [ 23-Дек-2015 22:00 ]

  

Скачать .torrent

Размер .torrent файла 17 KB


Размер: 1.69 GB
Хэш (hash) релиза: 12670970b54c3cbd868d9bff0a2c4643102a6757

Торренты, похожие на [VIDEO] Перевозчик: Наследие The Transporter Refueled скачать торрент

Форум Название Автор Размер S L Добавлен
Видео (Фильмы/Клипы) ·· [VIDEO] Перевозчик: Наследие / The Transporter Refueled (Камиль Деламарр / Camille Delamarre) [2015, боевик, триллер, криминал, HDRip] [MP4, 480x] Dub Galfimbul 456507301435 MB 0 0 1483198640

18:37

31-Дек-16

Видео (Фильмы/Клипы) ·· [VIDEO] Перевозчик: Наследие / The Transporter Refueled (Камиль Деламарр / Camille Delamarre) [2015, боевик, триллер, криминал, HDRip] [MP4, 960x] Dub Galfimbul 10491128711001 MB 0 0 1483196176

17:56

31-Дек-16

Еще никто не оставлял запись к записи скачать торрент [VIDEO] Перевозчик: Наследие The Transporter Refueled . Будь первым!

!Обратная связь