Nero Lite-Micro v12.0. | FileViewPro Gold Edition 1 3 2 20 Pre Cracked | Rebel in the Rye 2017

Скачать через торрент [VIDEO] Скорость: Автобус 657 Heist бесплатно русская версия torrent активатор

Статистика раздачи
Размер:  1.7 GB   |    Зарегистрирован:  2 года 6 месяцев   |    .torrent скачан:  27 раз   |   
Раздают:  1  
   
загрузка...
 
Автор Сообщение

Galfimbul

avatar Galfimbul


Скорость: Автобус 657 / Heist

Год выпуска: 2015
Оригинальное название: Heist
Страна: США
Жанр: боевик, триллер, криминал
Возраст: 16+

Режиссер: Скотт Манн

В ролях: Джеффри Дин Морган, Роберт Де Ниро, Кейт Босворт, Дэйв Батиста, Джина Карано, Марк-Пол Госселаар, Моррис Честнат, Д.Б. Суини, Саммер Элтис, Лидия Халл

Описание: Все знают, что обокрасть Фрэнка Поупа, владельца казино и босса мафии — это самоубийство. Но однажды некогда преданный ему крупье решается вынести из кассы казино несколько миллионов долларов. Все было продумано, но план не сработал. Скрываясь с места преступления, грабители захватывают автобус, полный заложников. На бешеной скорости автобус мчится к мексиканской границе. Топливо на пределе. На хвосте — мафия и полиция. И, кажется, выхода нет…

Продолжительность: 01:32:18
Перевод: Дублированный
Оригинальная дорожка: нет

Автор рипа:

Качество видео: BDRip Исходник: Blu-Ray Remux (1080p) Формат: mp4
Видео кодек: MPEG-4 AVC Аудио кодек: AAC
Видео: 1280x536 at 23.976 fps, AVC at 2 500 kbps avg, 0.152 bit/pixel
Аудио №1 Rus: 48.0 KHz, AAC, 2 ch, CBR, 128.0 Kbps
Субтитры: нет
Навигация по главам: нет
GeneralComplete name : E:\Skorost_avtobus_657.2015_KinoGadget.mp4Format : MPEG-4Format profile : Base MediaCodec ID : isomFile size : 1.70 GiBDuration : 1h 32mnOverall bit rate mode : VariableOverall bit rate : 2 631 KbpsMovie name : Скорость: Автобус 657Performer : Скотт МаннGenre : Action, Crime, ThrillerContentType : Short FilmRecorded date : 2015Encoded date : UTC 2015-12-23 11:34:29Tagged date : UTC 2015-12-23 11:40:11Cover : YesContentRating : mpaa|R|400|

LongDescription : Все знают, что обокрасть Фрэнка Поупа, владельца казино и босса мафии — это самоубийство. Но однажды некогда преданный ему крупье решается вынести из кассы казино несколько миллионов долларов. Все было продумано, но план не сработал. Скрываясь с места преступления, грабители захватывают автобус, полный заложников. На бешеной скорости автобус мчится к мексиканской границе. Топливо на пределе. На хвосте — мафия и полиция. И, кажется, выхода нет…HDVideo : Yes

VideoID : 1Format : AVCFormat/Info : Advanced Video CodecFormat profile : [email protected] settings, CABAC : YesFormat settings, ReFrames : 11 framesCodec ID : avc1Codec ID/Info : Advanced Video CodingDuration : 1h 32mnBit rate : 2 500 KbpsMaximum bit rate : 20.8 MbpsWidth : 1 280 pixelsHeight : 536 pixelsDisplay aspect ratio : 2.40:1Frame rate mode : ConstantFrame rate : 23.976 fpsColor space : YUVChroma subsampling : 4:2:0Bit depth : 8 bitsScan type : ProgressiveBits/(Pixel*Frame) : 0.152Stream size : 1.61 GiB (95%)Writing library : x264 core 148 r2638 7599210Encoding settings : cabac=1 / ref=11 / deblock=1:-1:-1 / analyse=0x3:0x133 / me=umh / subme=9 / psy=1 / psy_rd=1.00:0.00 / mixed_ref=1 / me_range=32 / chroma_me=1 / trellis=2 / 8x8dct=1 / cqm=0 / deadzone=21,11 / fast_pskip=1 / chroma_qp_offset=-2 / threads=3 / lookahead_threads=1 / sliced_threads=0 / nr=0 / decimate=1 / interlaced=0 / bluray_compat=0 / constrained_intra=0 / bframes=8 / b_pyramid=2 / b_adapt=2 / b_bias=0 / direct=3 / weightb=1 / open_gop=0 / weightp=2 / keyint=240 / keyint_min=23 / scenecut=40 / intra_refresh=0 / rc_lookahead=60 / rc=2pass / mbtree=1 / bitrate=2500 / ratetol=1.0 / qcomp=0.60 / qpmin=0 / qpmax=69 / qpstep=4 / cplxblur=20.0 / qblur=0.5 / ip_ratio=1.40 / aq=1:1.00Language : EnglishEncoded date : UTC 2015-12-23 11:27:03Tagged date : UTC 2015-12-23 11:35:46

AudioID : 2Format : AACFormat/Info : Advanced Audio CodecFormat profile : LCCodec ID : 40Duration : 1h 32mnBit rate mode : VariableBit rate : 128 KbpsMaximum bit rate : 135 KbpsChannel count : 2 channelsChannel positions : Front: L RSampling rate : 48.0 KHzCompression mode : LossyStream size : 84.5 MiB (5%)Language : RussianEncoded date : UTC 2015-12-23 11:24:51Tagged date : UTC 2015-12-23 11:35:46
[url=...39840292] [/url]

Трекер:  [ 23-Дек-2015 16:30 ]

  

Скачать .torrent

Размер .torrent файла 17 KB


Размер: 1.7 GB
Хэш (hash) релиза: 3c169b0d57b91838d1175bfd43da57e4dcc0266a

Еще никто не оставлял запись к записи скачать торрент [VIDEO] Скорость: Автобус 657 Heist . Будь первым!

!Обратная связь