Download | Chapter 116.5 : Battle at the Corn Field - Part 2 | A Dangerous S (2018)

Скачать через торрент [VIDEO] 128 ударов сердца в минуту We Are Your Friends бесплатно русская версия torrent активатор

Статистика раздачи
Размер:  1.77 GB   |    Зарегистрирован:  2 года 6 месяцев   |    .torrent скачан:  33 раза   |   
Раздают:  1  
   
загрузка...
 
Автор Сообщение

Galfimbul

avatar Galfimbul


128 ударов сердца в минуту / We Are Your Friends

Год выпуска: 2015
Оригинальное название: We Are Your Friends
Страна: Великобритания, Франция, США
Жанр: драма, мелодрама, музыка
Возраст: 18+

Режиссер: Макс Джозеф

В ролях: Зак Эфрон, Уэс Бентли, Эмили Ратаковски, Джонни Уэстон, Шайло Фернандес, Алекс Шеффер, Джон Бернтал, Алисия Коппола, Уайли М. Пикетт, Джон Абрахамс

Описание: Лос-Анджелес, Калифорния — это мир бесконечных возможностей днем и нереальных голливудских вечеринок ночью. Оба этих мира стремится покорить молодой DJ по имени Коул, неустанно работающий над своим пробивным треком, который должен взорвать весь мир. Его замечает и берет под крыло опытный продюсер Джеймс, но все становится крайне запутанным, когда Коул влюбляется в молодую подружку Джеймса. Вскоре перед Коулом встает непростой выбор между любовью, верностью, старыми друзьями и будущим, о котором он так мечтает.

Продолжительность: 01:36:02
Перевод: Дублированный
Оригинальная дорожка: нет

Автор рипа: [url=...39840292] [/url]

Качество видео: BDRip Исходник: Blu-Ray Remux (1080p) Формат: mp4
Видео кодек: MPEG-4 AVC Аудио кодек: AAC
Видео: 1280x688 at 24.000 fps, AVC at 2 500 kbps avg, 0.118 bit/pixel
Аудио №1 Rus: 48.0 KHz, AAC, 2 ch, CBR, 128.0 Kbps
Субтитры: нет
Навигация по главам: нет
GeneralComplete name : E:\128_udarov_serdca_v_minutu.2015_KinoGadget.mp4Format : MPEG-4Format profile : Base MediaCodec ID : isomFile size : 1.77 GiBDuration : 1h 36mnOverall bit rate mode : VariableOverall bit rate : 2 635 KbpsMovie name : 128 ударов сердца в минутуPerformer : Макс ДжозефGenre : Drama, Music, RomanceContentType : Short FilmRecorded date : 2015Encoded date : UTC 2015-12-23 14:07:19Tagged date : UTC 2015-12-23 14:13:14Cover : YesContentRating : mpaa|R|400|

LongDescription : Лос-Анджелес, Калифорния — это мир бесконечных возможностей днем и нереальных голливудских вечеринок ночью. Оба этих мира стремится покорить молодой DJ по имени Коул, неустанно работающий над своим пробивным треком, который должен взорвать весь мир. Его замечает и берет под крыло опытный продюсер Джеймс, но все становится крайне запутанным, когда Коул влюбляется в молодую подружку Джеймса. Вскоре перед Коулом встает непростой выбор между любовью, верностью, старыми друзьями и будущим, о котором он так мечтает.HDVideo : Yes

VideoID : 1Format : AVCFormat/Info : Advanced Video CodecFormat profile : [email protected] settings, CABAC : YesFormat settings, ReFrames : 9 framesCodec ID : avc1Codec ID/Info : Advanced Video CodingDuration : 1h 36mnBit rate : 2 500 KbpsMaximum bit rate : 16.0 MbpsWidth : 1 280 pixelsHeight : 688 pixelsDisplay aspect ratio : 1.85:1Frame rate mode : ConstantFrame rate : 24.000 fpsColor space : YUVChroma subsampling : 4:2:0Bit depth : 8 bitsScan type : ProgressiveBits/(Pixel*Frame) : 0.118Stream size : 1.68 GiB (95%)Writing library : x264 core 148 r2638 7599210Encoding settings : cabac=1 / ref=9 / deblock=1:-1:-1 / analyse=0x3:0x133 / me=umh / subme=9 / psy=1 / psy_rd=1.00:0.00 / mixed_ref=1 / me_range=32 / chroma_me=1 / trellis=2 / 8x8dct=1 / cqm=0 / deadzone=21,11 / fast_pskip=1 / chroma_qp_offset=-2 / threads=3 / lookahead_threads=1 / sliced_threads=0 / nr=0 / decimate=1 / interlaced=0 / bluray_compat=0 / constrained_intra=0 / bframes=8 / b_pyramid=2 / b_adapt=2 / b_bias=0 / direct=3 / weightb=1 / open_gop=0 / weightp=2 / keyint=240 / keyint_min=24 / scenecut=40 / intra_refresh=0 / rc_lookahead=60 / rc=2pass / mbtree=1 / bitrate=2500 / ratetol=1.0 / qcomp=0.60 / qpmin=0 / qpmax=69 / qpstep=4 / cplxblur=20.0 / qblur=0.5 / ip_ratio=1.40 / aq=1:1.00Language : EnglishEncoded date : UTC 2015-12-23 13:56:06Tagged date : UTC 2015-12-23 14:08:32

AudioID : 2Format : AACFormat/Info : Advanced Audio CodecFormat profile : LCCodec ID : 40Duration : 1h 35mnBit rate mode : VariableBit rate : 128 KbpsMaximum bit rate : 134 KbpsChannel count : 2 channelsChannel positions : Front: L RSampling rate : 48.0 KHzCompression mode : LossyStream size : 87.8 MiB (5%)Language : RussianEncoded date : UTC 2015-12-23 13:58:11Tagged date : UTC 2015-12-23 14:08:32


Трекер:  [ 23-Дек-2015 16:30 ]

  

Скачать .torrent

Размер .torrent файла 18 KB


Размер: 1.77 GB
Хэш (hash) релиза: 949c2a064ed98cb7976a5921fb43fb5b72ec31fd

Еще никто не оставлял запись к записи скачать торрент [VIDEO] 128 ударов сердца в минуту We Are Your Friends . Будь первым!

!Обратная связь