Pod prikritie S04E10 Pod prikritie S04E10 | » Serie TV Sub ITA | Télécharger Part 6

Скачать через торрент [VIDEO] Шесть дней, семь ночей Six Days Seven Nights бесплатно русская версия torrent активатор

Статистика раздачи
Размер:  1.52 GB   |    Зарегистрирован:  2 года 7 месяцев   |    .torrent скачан:  28 раз   |   
Раздают:  1  
   
загрузка...
 
Автор Сообщение

Galfimbul

avatar Galfimbul


Шесть дней, семь ночей / Six Days Seven Nights

«After this week in paradise, they're going to need a vacation»
Год выпуска: 1998
Страна: США
Жанр: боевик, мелодрама, комедия, приключения
Продолжительность: 01:41:56
Перевод №1: Профессиональный (Полное дублирование)
Перевод №2: Профессиональный (Многоголосый, закадровый)
Перевод №3: Авторский (Одноголосый, закадровый ) Юрий Живов
Cубтитры: нет
Режиссеры: Айвен Райтман / Ivan Reitman
В ролях: Харрисон Форд (Quinn Harris), Энн Хеч (Robin Monroe), Дэвид Швиммер (Frank Martin), Жаклин Обрадорс (Angelica), Темуэра Моррисон (Jager), Эллисон Дженни (Marjorie, Robin's Boss), Дуглас Уэстон (Philippe Sinclair, Resort Manager), Клифф Кёртис (Kip), Дэнни Трехо (Pierce), Бен Боуд (Tom Marlowe, Helicopter Pilot) и другие .
Описание: Небольшой самолет терпит катастрофу на необитаемом острове. Отважный летчик и его очаровательная пассажирка оказались совершенно одни среди дикой природы. Они отчаянно пытаются сообщить о себе, но не знают, что их уже давно перестали искать. Наконец, впервые за эти дни на пустынном горизонте показался странный корабль, который причалил к затерянному острову.

Самолёт, которым управляет герой Харрисона Форда, это одномоторный DeHavilland Beaver. Актёр является владельцем точно такого же самолета, и сам управлял им на съёмках картины. Однако, несмотря на то, что он является довольно опытным пилотом, Харрисону Форду пришлось пройти дополнительную сертификацию для страховой компании с тем, что ему было разрешено управлять самолётом с другими людьми на борту.
Использованный в фильме аэроплан был задействован также при съёмках картины «На грани (1997). В обеих кинолентах он терпит аварию.
Основной кандидатурой на главную женскую роль была Джулия Робертс.

[b]Релиз группы

Качество:HDTVRip / [i]рип с HDTVRip 1080i
Формат: MP4
Видео кодек: H.264 Аудио кодек: AAC Видео: 960x540 AR: 16/9 1740 kbps 23.976 fps
Аудио №1: [Русский] 2ch 48 kHz 128 kbps [Dub]
Аудио №2: [Русский] 2ch 48 kHz 128 kbps [MVO]
Аудио №3: [Русский] 2ch 48 kHz 128 kbps [VO] Живов
...last pass...

x264.exe: --pass 2 --bitrate 1740 --preset medium --profile high --level 4.1 --ref 7 --aq-strength 0.7 --deblock -1:-1 --merange 32 --bframes 7 --trellis 2 --no-fast-pskip --no-dct-decimate --psy-rd 0.80:0.00 --subme 11 --me umh --colorprim bt709 --transfer bt709 --colormatrix bt709 --sar 1:1 --stats "D:\00001.log" --output "D:\00001.mp4" "D:\XVID4PSP 5\Temp\0277.avs"

avs [info]: 960x540p 1:1 @ 24000/1001 fps (cfr)
x264 [info]: using SAR=1/1
x264 [info]: using cpu capabilities: MMX2 SSE2Fast SSSE3 SSE4.2 LZCNT
x264 [info]: profile High, level 4.1

x264 [info]: frame I:1512 Avg QP:20.43 size: 36315
x264 [info]: frame P:73269 Avg QP:23.85 size: 13897
x264 [info]: frame B:71876 Avg QP:26.75 size: 3571
x264 [info]: consecutive B-frames: 16.8% 49.5% 16.1% 12.6% 3.7% 0.7% 0.3% 0.4%
x264 [info]: mb I I16..4: 26.6% 54.0% 19.4%
x264 [info]: mb P I16..4: 2.1% 8.4% 0.9% P16..4: 36.8% 33.0% 9.0% 0.0% 0.0% skip: 9.8%
x264 [info]: mb B I16..4: 0.2% 0.7% 0.1% B16..8: 35.0% 11.8% 1.7% direct: 2.4% skip:48.2% L0:37.0% L1:51.4% BI:11.6%
x264 [info]: 8x8 transform intra:70.6% inter:60.2%
x264 [info]: coded y,uvDC,uvAC intra: 74.0% 55.9% 13.8% inter: 21.8% 12.4% 2.5%
x264 [info]: i16 v,h,dc,p: 18% 18% 17% 47%
x264 [info]: i8 v,h,dc,ddl,ddr,vr,hd,vl,hu: 9% 9% 7% 8% 11% 13% 13% 12% 16%
x264 [info]: i4 v,h,dc,ddl,ddr,vr,hd,vl,hu: 16% 14% 14% 5% 10% 10% 11% 8% 12%
x264 [info]: i8c dc,h,v,p: 35% 34% 18% 14%
x264 [info]: Weighted P-Frames: Y:5.4% UV:1.3%
x264 [info]: ref P L0: 57.9% 14.8% 13.3% 4.5% 3.5% 2.7% 2.5% 0.7% 0.0%
x264 [info]: ref B L0: 86.3% 7.3% 3.5% 1.5% 1.1% 0.3%
x264 [info]: ref B L1: 96.8% 3.2%
x264 [info]: kb/s:1739.23

x264 [total]: encoded 146657 frames, 6.68 fps, 1739.24 kb/s

ОбщееПолное имя : D:\Torrents\Six Days Seven Nights.1998.HDTVRip.x264.960x.rip by Frost O.S.mp4Формат : MPEG-4Профиль формата : Base MediaИдентификатор кодека : isomРазмер файла : 1,52 ГбайтПродолжительность : 1 ч. 42 м.Режим общего битрейта : ПеременныйОбщий поток : 2137 Кбит/секНазвание фильма : Six Days Seven Nights 1998 HDTVRip x264 960x rip by Frost O SТип содержимого : Short FilmДата кодирования : UTC 2015-12-22 13:33:26Дата пометки : UTC 2015-12-22 13:35:01Программа кодирования : MkvToMp4 version: 0.224 (x64)Обложка : YesПримечание : rip by Frost O.S

ВидеоИдентификатор : 1Формат : AVCФормат/Информация : Advanced Video CodecПрофиль формата : [email protected]Параметр CABAC формата : ДаПараметр ReFrames формата : 7 кадровИдентификатор кодека : avc1Идентификатор кодека/Информация : Advanced Video CodingПродолжительность : 1 ч. 41 м.Битрейт : 1740 Кбит/секМаксимальный битрейт : 8748 Кбит/секШирина : 960 пикселейВысота : 540 пикселейСоотношение сторон : 16:9Режим частоты кадров : ПостоянныйЧастота кадров : 23,976 кадра/секЦветовое пространство : YUVСубдискретизация насыщенности : 4:2:0Битовая глубина : 8 битТип развёртки : ПрогрессивнаяБит/(Пиксели*Кадры) : 0.140Размер потока : 1,24 Гбайт (81%)Библиотека кодирования : x264 core 130 r2273 b3065e6Настройки программы : cabac=1 / ref=7 / deblock=1:-1:-1 / analyse=0x3:0x113 / me=umh / subme=11 / psy=1 / psy_rd=0.80:0.00 / mixed_ref=1 / me_range=32 / chroma_me=1 / trellis=2 / 8x8dct=1 / cqm=0 / deadzone=21,11 / fast_pskip=0 / chroma_qp_offset=-2 / threads=3 / lookahead_threads=1 / sliced_threads=0 / nr=0 / decimate=0 / interlaced=0 / bluray_compat=0 / constrained_intra=0 / bframes=7 / b_pyramid=2 / b_adapt=1 / b_bias=0 / direct=1 / weightb=1 / open_gop=0 / weightp=2 / keyint=250 / keyint_min=23 / scenecut=40 / intra_refresh=0 / rc_lookahead=40 / rc=2pass / mbtree=1 / bitrate=1740 / ratetol=1.0 / qcomp=0.60 / qpmin=0 / qpmax=69 / qpstep=4 / cplxblur=20.0 / qblur=0.5 / ip_ratio=1.40 / aq=1:0.70Язык : EnglishДата кодирования : UTC 2015-12-22 13:33:26Дата пометки : UTC 2015-12-22 13:33:52Цветовой диапазон : LimitedОсновные цвета : BT.709Характеристики трансфера : BT.709Коэффициенты матрицы : BT.709

Аудио #1Идентификатор : 2Формат : AACФормат/Информация : Advanced Audio CodecПрофиль формата : LCИдентификатор кодека : 40Продолжительность : 1 ч. 41 м.Вид битрейта : ПеременныйБитрейт : 128 Кбит/секМаксимальный битрейт : 135 Кбит/секКаналы : 2 каналаРасположение каналов : Front: L RЧастота : 48,0 КГцМетод сжатия : С потерямиРазмер потока : 93,3 Мбайт (6%)Заголовок : Dub / DubЯзык : RussianДата кодирования : UTC 2015-12-22 13:33:45Дата пометки : UTC 2015-12-22 13:33:52

Аудио #2Идентификатор : 3Формат : AACФормат/Информация : Advanced Audio CodecПрофиль формата : LCИдентификатор кодека : 40Продолжительность : 1 ч. 41 м.Вид битрейта : ПеременныйБитрейт : 128 Кбит/секМаксимальный битрейт : 135 Кбит/секКаналы : 2 каналаРасположение каналов : Front: L RЧастота : 48,0 КГцМетод сжатия : С потерямиРазмер потока : 93,3 Мбайт (6%)Заголовок : MVO / MVOЯзык : RussianДата кодирования : UTC 2015-12-22 13:33:48Дата пометки : UTC 2015-12-22 13:33:52

Аудио #3Идентификатор : 4Формат : AACФормат/Информация : Advanced Audio CodecПрофиль формата : LCИдентификатор кодека : 40Продолжительность : 1 ч. 42 м.Вид битрейта : ПеременныйБитрейт : 128 Кбит/секМаксимальный битрейт : 135 Кбит/секКаналы : 2 каналаРасположение каналов : Front: L RЧастота : 48,0 КГцМетод сжатия : С потерямиРазмер потока : 93,4 Мбайт (6%)Заголовок : VO Zhuvov / VO ZhuvovЯзык : RussianДата кодирования : UTC 2015-12-22 13:33:50Дата пометки : UTC 2015-12-22 13:33:52


Трекер:  [ 22-Дек-2015 18:00 ]

  

Скачать .torrent

Размер .torrent файла 15 KB


Размер: 1.52 GB
Хэш (hash) релиза: a6ddc9753bf4421c4ec3de9fc1f7b7f8736e85c3

Торренты, похожие на [VIDEO] Шесть дней, семь ночей Six Days Seven Nights скачать торрент

Форум Название Автор Размер S L Добавлен
Видео (Фильмы/Клипы) ·· [VIDEO] Шесть дней, семь ночей / Six Days Seven Nights (Айвен Райтман / Ivan Reitman) [1998, боевик, мелодрама, комедия, приключения, HDTVRip] [MP4, 480x] Dub Galfimbul 474275653452 MB 0 0 1450544919

20:08

19-Дек-15

Еще никто не оставлял запись к записи скачать торрент [VIDEO] Шесть дней, семь ночей Six Days Seven Nights . Будь первым!

!Обратная связь