Subscribe | التحميل : 518 | Paz Vega

Скачать через торрент [VIDEO] Брат 2 бесплатно русская версия torrent активатор

Статистика раздачи
Размер:  1.63 GB   |    Зарегистрирован:  2 года 7 месяцев   |    .torrent скачан:  23 раза   |   
Раздают:  1  
   
загрузка...
 
Автор Сообщение

Galfimbul

avatar Galfimbul


Брат 2

Год выпуска: 2000
Страна: Россия, США
Жанр: боевик, драма, криминал, музыка
Продолжительность: 02:02:40
Cубтитры: русские, английские

Режиссер: Алексей Балабанов
Сценарий: Алексей Балабанов
Продюсер: Валери Гобо, Сергей Сельянов
Оператор: Сергей Астахов
Композитор: Вячеслав Бутусов
Художник: Владимир Карташов, Надежда Васильева
Монтаж: Марина Липартия

В ролях: Сергей Бодров мл., Виктор Сухоруков, Сергей Маковецкий, Ирина Салтыкова, Кирилл Пирогов, Александр Дьяченко, Дарья Юргенс, Александр Наумов, Юрий Стоянов, Александр Карамнов, Гэри Хьюстон, Рэй Толер, Лиза Джеффри, Константин Желдин, Роман Токарь, Татьяна Захарова, Аркадий Зерский, Иван Демидов, Алекс Эмануэл, Дарюс Каспарайтис, Светлана Михайлова, Алексей Морозов, Андрей Николишин, Валдис Пельш, Ирина Рахманова, Леонид Якубович, Евгения Дмитриева
Роли дублировали: Алексей Полуян, Евгений Дятлов, Наталья Данилова, Юрий Стоянов

Описание: Участвуя в программе на телевидении, Данила Багров встречает своих друзей по Чечне. Одного из них внезапно убивают. Данила знает, что у того были неприятности из-за брата-хоккеиста в Америке. Данила должен разобраться. Он вылетает в Америку и для компании берёт с собой брата. Теперь его фотография ходит по рукам русской и американской мафии. Новоявленные «Аль Капоне» понимают, что нарвались на профессионала…

Качество: WEB-DLRip | WEB-DLRip 1080p
Формат: MP4

Видео: 960x540, [email protected], AR:1.77, 1740 kbps, 25.000 fps
Аудио: 2ch, 48 kHz, 160 kbps

Мировая премьера: 30 августа 2000
Премьера (РФ): 11 мая 2000, СТВ, Интерсинема-Арт
Релиз на DVD: 13 сентября 2007, Союз-Видео

[b]Релиз:

</a></span></span>
*Во время съемок фильма американские пиротехники не взялись за создание самопала. Тогда с этой работой справился оператор Сергей Астахов, который за час изготовил его из латунной трубки, железных скрепок и марганцевых опилок.*Голос нью-йоркского таксиста, похожий на голос Владимира Жириновского — это голос Юрия Стоянова, известного ведущего юмористической программы «Городок».*Сюжет популярной американской игры Grand Theft Auto 4 имеет некоторые сходства с фильмом. Главный герой игры — выходец из бывшего соцлагеря — Нико Белич приезжает в Либерти Сити, прототип Нью Йорка, к своему брату в поисках лучшей жизни. Однако вместо обещанной беззаботной и лёгкой жизни, которую обещал ему брат в Америке, Нико приходится столкнуться с криминальным миром и также спасти своего брата от его врагов. У двоюродного брата Нико автомобиль очень похож на тот, что был у Виктора Багрова в первой части фильма. Также совпадает одна аудиодорожка из саундтрека ("Линия жизни» группы «Сплин»).
ОбщееУникальный идентификатор : 213017123727115892776473016668093728933 (0xA0419B10D0AFCF50A666BB6B5230C8A5)Полное имя : ...\[email protected]Формат : MatroskaВерсия формата : Version 4 / Version 2Размер файла : 1,63 ГбайтПродолжительность : 2 ч. 2 м.Общий поток : 1905 Кбит/секНазвание фильма : Брат 2 / 2000 [email protected]=-Дата кодирования : UTC 2015-12-21 09:01:08Программа кодирования : mkvmerge v8.6.1 ('Flying') 32bitБиблиотека кодирования : libebml v1.3.3 + libmatroska v1.4.4

ВидеоИдентификатор : 1Формат : AVCФормат/Информация : Advanced Video CodecПрофиль формата : [email protected]Параметр CABAC формата : ДаПараметр ReFrames формата : 9 кадровИдентификатор кодека : V_MPEG4/ISO/AVCПродолжительность : 2 ч. 2 м.Битрейт : 1740 Кбит/секШирина : 960 пикселейВысота : 540 пикселейСоотношение сторон : 16:9Режим частоты кадров : ПостоянныйЧастота кадров : 25,000 кадров/секЦветовое пространство : YUVСубдискретизация насыщенности : 4:2:0Битовая глубина : 8 битТип развёртки : ПрогрессивнаяБит/(Пиксели*Кадры) : 0.134Размер потока : 1,49 Гбайт (91%)Заголовок : Rip by nnlabetikБиблиотека кодирования : x264 core 148 r2638 7599210Настройки программы : cabac=1 / ref=9 / deblock=1:-2:-1 / analyse=0x3:0x113 / me=umh / subme=11 / psy=1 / psy_rd=1.00:0.00 / mixed_ref=1 / me_range=32 / chroma_me=1 / trellis=2 / 8x8dct=1 / cqm=0 / deadzone=21,11 / fast_pskip=0 / chroma_qp_offset=-2 / threads=4 / lookahead_threads=1 / sliced_threads=0 / nr=0 / decimate=1 / interlaced=0 / bluray_compat=0 / constrained_intra=0 / bframes=12 / b_pyramid=2 / b_adapt=2 / b_bias=0 / direct=3 / weightb=1 / open_gop=0 / weightp=0 / keyint=250 / keyint_min=25 / scenecut=40 / intra_refresh=0 / rc_lookahead=60 / rc=2pass / mbtree=0 / bitrate=1740 / ratetol=1.0 / qcomp=0.60 / qpmin=0 / qpmax=69 / qpstep=4 / cplxblur=20.0 / qblur=0.5 / vbv_maxrate=20000 / vbv_bufsize=25000 / nal_hrd=none / filler=0 / ip_ratio=1.30 / pb_ratio=1.20 / aq=1:1.00Язык : RussianDefault : ДаForced : НетЦветовой диапазон : LimitedОсновные цвета : BT.709Характеристики трансфера : BT.709Коэффициенты матрицы : BT.709

АудиоИдентификатор : 2Формат : AACФормат/Информация : Advanced Audio CodecПрофиль формата : LCИдентификатор кодека : A_AACПродолжительность : 2 ч. 2 м.Битрейт : 163 Кбит/секКаналы : 2 каналаРасположение каналов : Front: L RЧастота : 48,0 КГцЧастота кадров : 46,875 кадров/сек (1024 spf)Метод сжатия : С потерямиРазмер потока : 143 Мбайт (9%)Язык : RussianDefault : НетForced : Нет

Текст #1Идентификатор : 3Формат : UTF-8Идентификатор кодека : S_TEXT/UTF8Идентификатор кодека/Информация : UTF-8 Plain TextПродолжительность : 1 ч. 58 м.Битрейт : 65 бит/секCount of elements : 971Размер потока : 57,2 Кбайт (0%)Язык : RussianDefault : НетForced : Нет

Текст #2Идентификатор : 4Формат : UTF-8Идентификатор кодека : S_TEXT/UTF8Идентификатор кодека/Информация : UTF-8 Plain TextПродолжительность : 1 ч. 58 м.Битрейт : 39 бит/секCount of elements : 975Размер потока : 34,6 Кбайт (0%)Язык : EnglishDefault : НетForced : Нет

Меню00:00:00.000 : en:Глава 100:07:38.000 : en:Глава 200:13:07.000 : en:Глава 300:18:14.000 : en:Глава 400:24:38.000 : en:Глава 500:31:27.000 : en:Глава 600:38:10.000 : en:Глава 700:44:05.000 : en:Глава 800:51:29.000 : en:Глава 900:57:08.000 : en:Глава 1001:02:41.000 : en:Глава 1101:08:01.000 : en:Глава 1201:14:26.000 : en:Глава 1301:22:00.000 : en:Глава 1401:28:24.000 : en:Глава 1501:33:59.000 : en:Глава 1601:39:27.000 : en:Глава 1701:45:27.000 : en:Глава 1801:52:06.000 : en:Глава 1901:56:34.000 : en:Глава 20


Трекер:  [ 21-Дек-2015 23:00 ]

  

Скачать .torrent

Размер .torrent файла 16 KB


Размер: 1.63 GB
Хэш (hash) релиза: f5abf643e98c9d2547dc36f9c9f9fd261cdc6116

Еще никто не оставлял запись к записи скачать торрент [VIDEO] Брат 2 . Будь первым!

!Обратная связь