Previous Thread | Everything Sucks! | Animado Presidente HDTV

Скачать через торрент [VIDEO] Брат бесплатно русская версия torrent активатор

Статистика раздачи
Размер:  1.26 GB   |    Зарегистрирован:  2 года 6 месяцев   |    .torrent скачан:  21 раз   |   
Раздают:  1  
   
загрузка...
 
Автор Сообщение

Galfimbul

avatar Galfimbul


Брат

Год выпуска: 1997
Страна: Россия
Жанр: боевик, драма, криминал, музыка
Продолжительность: 01:35:22
Cубтитры: русские

Режиссер: Алексей Балабанов
Сценарий: Алексей Балабанов
Продюсер: Сергей Сельянов
Оператор: Сергей Астахов
Композитор: Вячеслав Бутусов
Художник: Владимир Карташов, Надежда Васильева
Монтаж: Марина Липартия

В ролях: Сергей Бодров мл., Виктор Сухоруков, Светлана Письмиченко, Мария Жукова, Юрий Кузнецов, Сергей Мурзин, Ирина Ракшина, Анатолий Журавлев, Андрей Федорцов, Андрей Краско
Роли дублировали: Алексей Полуян, Александр Строев, Валерий Кухарешин, Сергей Русскин, Александр Половцев

Описание: Демобилизованный из армии, Данила Багров вернулся в родной городок. Но скучная жизнь российской провинции не устраивала его, и он решился податься в Петербург, где, по слухам, уже несколько лет процветает его старший брат. Данила нашел брата. Но все оказалось не так просто - брат был наемным убийцей...

Качество: WEB-DLRip | WEB-DLRip 1080p
Формат: MP4

Видео: 960x540, [email protected], AR:1.77, 1740 kbps, 25.000 fps
Аудио: 2ch, 48 kHz, 160 kbps

Мировая премьера: 17 мая 1997
Премьера (РФ): 12 декабря 1997, СТВ, Кармен-Премьер
Релиз на DVD: 30 августа 2007, Союз-Видео

[b]Релиз:

</a></span></span>
*Светлана Письмиченко для роли Светы специально обучалась вождению трамвая.*Первая встреча героев Бодрова и Сухорукова происходит в знаменитом «доме Адамини».*Большая часть фильма снята на Васильевском острове.*Свитер крупной вязки, который носил Данила Багров, купила художница Надежда Васильева в секонд-хэнде за 35 рублей.*Данила в милиции говорит свой адрес: «Вокзальная, 22». Именно такой адрес железнодорожного вокзала в Екатеринбурге, родном городе Алексея Балабанова.*Фильм был снят всего за 31 день.*Оператор фильма Сергей Астахов сыграл в последней сцене дальнобойщика, потому что к концу съёмок выяснилось, что ни у кого нет водительских прав для управления грузовой техникой.*Из-за нехватки бюджетных денег съемки проводились в неоформленных как следовало местах, тем самым снижая затраты.*Эпизоды, действие которых происходит в родном городе Данилы, снимались в Приозерске. В частности, съёмки клипа происходят у стен крепости Корела.*На съёмки фильма было потрачено всего около 100 000 долларов США.*Во время съёмок сцены ранения Павла Евграфовича из-за ошибки пиротехников актёр Владимир Ермилов в действительности получил ранение ноги.*Утверждается, что после выхода этого фильма к группе «Nautilus Pompilius» вернулась былая популярность, утраченная ими с выходом альбома «Крылья», однако в этом же году Бутусов принял решение распустить группу окончательно.*Гофман в сцене на кладбище после второго «дела» на оправдывания Данилы говорит: «Бог тебе судья…» В переводе на русский язык имя Данила означает «Бог мне судья»
ОбщееУникальный идентификатор : 219993997925497380134762545085926875610 (0xA5814D858C126C268383A9A458BC21DA)Полное имя : ...\[email protected]Формат : MatroskaВерсия формата : Version 4 / Version 2Размер файла : 1,26 ГбайтПродолжительность : 1 ч. 35 м.Общий поток : 1898 Кбит/секНазвание фильма : Брат / 1997 [email protected]=-Дата кодирования : UTC 2015-12-21 03:35:31Программа кодирования : mkvmerge v8.6.1 ('Flying') 32bitБиблиотека кодирования : libebml v1.3.3 + libmatroska v1.4.4

ВидеоИдентификатор : 1Формат : AVCФормат/Информация : Advanced Video CodecПрофиль формата : [email protected]Параметр CABAC формата : ДаПараметр ReFrames формата : 9 кадровИдентификатор кодека : V_MPEG4/ISO/AVCПродолжительность : 1 ч. 35 м.Битрейт : 1740 Кбит/секШирина : 960 пикселейВысота : 540 пикселейСоотношение сторон : 16:9Режим частоты кадров : ПостоянныйЧастота кадров : 25,000 кадров/секЦветовое пространство : YUVСубдискретизация насыщенности : 4:2:0Битовая глубина : 8 битТип развёртки : ПрогрессивнаяБит/(Пиксели*Кадры) : 0.134Размер потока : 1,16 Гбайт (92%)Заголовок : Rip by nnlabetikБиблиотека кодирования : x264 core 148 r2638 7599210Настройки программы : cabac=1 / ref=9 / deblock=1:-2:-1 / analyse=0x3:0x113 / me=umh / subme=11 / psy=1 / psy_rd=1.00:0.00 / mixed_ref=1 / me_range=32 / chroma_me=1 / trellis=2 / 8x8dct=1 / cqm=0 / deadzone=21,11 / fast_pskip=0 / chroma_qp_offset=-2 / threads=4 / lookahead_threads=1 / sliced_threads=0 / nr=0 / decimate=1 / interlaced=0 / bluray_compat=0 / constrained_intra=0 / bframes=12 / b_pyramid=2 / b_adapt=2 / b_bias=0 / direct=3 / weightb=1 / open_gop=0 / weightp=0 / keyint=250 / keyint_min=25 / scenecut=40 / intra_refresh=0 / rc_lookahead=60 / rc=2pass / mbtree=0 / bitrate=1740 / ratetol=1.0 / qcomp=0.60 / qpmin=0 / qpmax=69 / qpstep=4 / cplxblur=20.0 / qblur=0.5 / vbv_maxrate=20000 / vbv_bufsize=25000 / nal_hrd=none / filler=0 / ip_ratio=1.30 / pb_ratio=1.20 / aq=1:1.00Язык : RussianDefault : ДаForced : НетЦветовой диапазон : LimitedОсновные цвета : BT.709Характеристики трансфера : BT.709Коэффициенты матрицы : BT.709

АудиоИдентификатор : 2Формат : AACФормат/Информация : Advanced Audio CodecПрофиль формата : LCИдентификатор кодека : A_AACПродолжительность : 1 ч. 35 м.Битрейт : 156 Кбит/секКаналы : 2 каналаРасположение каналов : Front: L RЧастота : 48,0 КГцЧастота кадров : 46,875 кадров/сек (1024 spf)Метод сжатия : С потерямиРазмер потока : 107 Мбайт (8%)Язык : RussianDefault : ДаForced : Нет

ТекстИдентификатор : 3Формат : UTF-8Идентификатор кодека : S_TEXT/UTF8Идентификатор кодека/Информация : UTF-8 Plain TextПродолжительность : 1 ч. 31 м.Битрейт : 45 бит/секCount of elements : 654Размер потока : 30,3 Кбайт (0%)Заголовок : [Full-length]Язык : RussianDefault : НетForced : Нет

Меню00:00:00.000 : en:Глава 100:04:59.000 : en:Глава 200:10:21.000 : en:Глава 300:16:45.000 : en:Глава 400:22:24.000 : en:Глава 500:28:22.000 : en:Глава 600:33:37.000 : en:Глава 700:39:21.000 : en:Глава 800:44:59.000 : en:Глава 900:50:41.000 : en:Глава 1000:56:22.000 : en:Глава 1101:02:28.000 : en:Глава 1201:08:49.000 : en:Глава 1301:14:25.000 : en:Глава 1401:19:56.000 : en:Глава 1501:26:49.000 : en:Глава 1601:31:44.000 : en:Глава 17


Трекер:  [ 21-Дек-2015 08:30 ]

  

Скачать .torrent

Размер .torrent файла 13 KB


Размер: 1.26 GB
Хэш (hash) релиза: 2ee7bcee32edfc7c0dbd2f54e4c3ac97f0e355cc

Еще никто не оставлял запись к записи скачать торрент [VIDEO] Брат . Будь первым!

!Обратная связь