The.Commuter.2018.German.DL.DTS.1080p.BluRa | Continuous Delivery with Visual Studio Team Services | Tile in India Tripura Stones

Скачать через торрент [VIDEO] Шесть дней, семь ночей Six Days Seven Nights бесплатно русская версия torrent активатор

Статистика раздачи
Размер:  452 MB   |    Зарегистрирован:  2 года 7 месяцев   |    .torrent скачан:  24 раза   |   
Раздают:  1  
   
загрузка...
 
Автор Сообщение

Galfimbul

avatar Galfimbul


Шесть дней, семь ночей / Six Days Seven Nights

«After this week in paradise, they're going to need a vacation»
Год выпуска: 1998
Страна: США
Жанр: боевик, мелодрама, комедия, приключения
Продолжительность: 01:41:56
Перевод: Профессиональный (полное дублирование)
Cубтитры: нет
Режиссеры: Айвен Райтман / Ivan Reitman
В ролях: Харрисон Форд (Quinn Harris), Энн Хеч (Robin Monroe), Дэвид Швиммер (Frank Martin), Жаклин Обрадорс (Angelica), Темуэра Моррисон (Jager), Эллисон Дженни (Marjorie, Robin's Boss), Дуглас Уэстон (Philippe Sinclair, Resort Manager), Клифф Кёртис (Kip), Дэнни Трехо (Pierce), Бен Боуд (Tom Marlowe, Helicopter Pilot) и другие .
Описание: Небольшой самолет терпит катастрофу на необитаемом острове. Отважный летчик и его очаровательная пассажирка оказались совершенно одни среди дикой природы. Они отчаянно пытаются сообщить о себе, но не знают, что их уже давно перестали искать. Наконец, впервые за эти дни на пустынном горизонте показался странный корабль, который причалил к затерянному острову.

Самолёт, которым управляет герой Харрисона Форда, это одномоторный DeHavilland Beaver. Актёр является владельцем точно такого же самолета, и сам управлял им на съёмках картины. Однако, несмотря на то, что он является довольно опытным пилотом, Харрисону Форду пришлось пройти дополнительную сертификацию для страховой компании с тем, что ему было разрешено управлять самолётом с другими людьми на борту.
Использованный в фильме аэроплан был задействован также при съёмках картины «На грани (1997). В обеих кинолентах он терпит аварию.
Основной кандидатурой на главную женскую роль была Джулия Робертс.

[b]Релиз группы

Качество:HDTVRip / [i]рип с HDTVRip 1080i
Формат: MP4
Видео кодек: XviD Аудио кодек: AAC Видео: 480x272 AR: 16/9 488 kbps 23.976 fps
Аудио: [Русский] 2ch 48 kHz 128 kbps [Dub]
ОбщееПолное имя : D:\Torrents\Six Days Seven Nights.1998.HDTVRip.XviD.480x.rip by Frost O.S.mp4Формат : MPEG-4Профиль формата : Base Media / Version 2Идентификатор кодека : mp42Размер файла : 452 МбайтПродолжительность : 1 ч. 41 м.Режим общего битрейта : ПеременныйОбщий поток : 620 Кбит/секДата кодирования : UTC 2015-12-19 14:28:58Дата пометки : UTC 2015-12-19 14:28:58

ВидеоИдентификатор : 201Формат : MPEG-4 VisualПрофиль формата : Advanced [email protected]Параметр BVOP формата : ДаПараметр QPel формата : НетПараметр GMC формата : Без точки переходаПараметр матрицы формата : ВыборочнаяИдентификатор кодека : 20Продолжительность : 1 ч. 41 м.Вид битрейта : ПеременныйБитрейт : 488 Кбит/секМаксимальный битрейт : 2486 Кбит/секШирина : 480 пикселейВысота : 272 пикселяСоотношение сторон : 16:9Режим частоты кадров : ПостоянныйЧастота кадров : 23,976 кадра/секЦветовое пространство : YUVСубдискретизация насыщенности : 4:2:0Битовая глубина : 8 битТип развёртки : ПрогрессивнаяМетод сжатия : С потерямиБит/(Пиксели*Кадры) : 0.156Размер потока : 356 Мбайт (79%)Библиотека кодирования : XviD 73Дата кодирования : UTC 2015-12-19 14:28:58Дата пометки : UTC 2015-12-19 14:29:19

АудиоИдентификатор : 101Формат : AACФормат/Информация : Advanced Audio CodecПрофиль формата : LCИдентификатор кодека : 40Продолжительность : 1 ч. 41 м.Вид битрейта : ПеременныйБитрейт : 128 Кбит/секМаксимальный битрейт : 137 Кбит/секКаналы : 2 каналаРасположение каналов : Front: L RЧастота : 48,0 КГцМетод сжатия : С потерямиРазмер потока : 93,3 Мбайт (21%)Дата кодирования : UTC 2015-12-19 14:29:16Дата пометки : UTC 2015-12-19 14:29:19

Прочее #1Идентификатор : 2Тип : Object descriptionФормат : SystemИдентификатор кодека : 1Продолжительность : 1 с. 0 мс.Дата кодирования : UTC 2015-12-19 14:29:19Дата пометки : UTC 2015-12-19 14:29:19

Прочее #2Идентификатор : 1Тип : Scene descriptionФормат : System CoreИдентификатор кодека : 2Продолжительность : 1 с. 0 мс.Дата кодирования : UTC 2015-12-19 14:29:19Дата пометки : UTC 2015-12-19 14:29:19


Трекер:  [ 19-Дек-2015 19:00 ]

  

Скачать .torrent

Размер .torrent файла 18 KB


Размер: 452 MB
Хэш (hash) релиза: 65bd644fe9eb49edc7f7a71ee1390654be50740f

Торренты, похожие на [VIDEO] Шесть дней, семь ночей Six Days Seven Nights скачать торрент

Форум Название Автор Размер S L Добавлен
Видео (Фильмы/Клипы) ·· [VIDEO] Шесть дней, семь ночей / Six Days Seven Nights (Айвен Райтман / Ivan Reitman) [1998, боевик, мелодрама, комедия, приключения, HDTVRip] [MP4, 960x] Dub, MVO, VO Живов Galfimbul 16351135901.52 GB 0 0 1450800107

19:01

22-Дек-15

Еще никто не оставлял запись к записи скачать торрент [VIDEO] Шесть дней, семь ночей Six Days Seven Nights . Будь первым!

!Обратная связь