Lean management dissertation pdf - Herald Investment Management | Augenzeugen | Bounen no Xamdou

Скачать через торрент [SERIAL] Тринадцатый апостол: Избранный Il tredicesimo apostolo: Il prescelto бесплатно русская версия torrent активатор

Статистика раздачи
Размер:  2.38 GB   |    Зарегистрирован:  2 года 6 месяцев   |    .torrent скачан:  19 раз   |   
Раздают:  1  
   
загрузка...
 
Автор Сообщение

Galfimbul

avatar Galfimbul


Тринадцатый апостол: Избранный / Il tredicesimo apostolo: Il prescelto1 сезон
Год выпуска: 2012
Страна: Италия
Жанр: фантастика, мистика, драма
Продолжительность: ~00:50:00
Перевод: Профессиональный (дублированный) ТВ3 + вставки MVO (ViruseProject)
Режиссер: Алексис Кехилл / Alexis Cahill
В ролях: Клаудио Джоэ (Габриэль), Стефано Пеше (Исайя), Клаудия Пандольфи (Клаудия), Луиджи Диберти (Монсеньор Деметрио Антинори), Томмазо Раньо (Сервенти), Элеонора Болла (Дария), Кармело Галати (Лука), Лаура Главан (Агата), Анна Ферцетти (Тереса), Мириам Джованелли (Ребекка Россини), Эрика Аврора (Вера), Лаура Главан (Агата) и др.
Описание: Тринадцатый апостол — телесериал о паранормальных явлениях. Главный герой Габриэль Антинори, молодой священник и одновременно профессор богословия в университе. Он работает в церковной организации «Конгрегация правды", которая изучает мир паранормальных явлений с целью проверки рационально необъяснимых явлений. Организация изучает события, в которых невозможно уловить тонкую грань между добром и злом и она пытается понять их истинную природу.
Несмотря на все трудности, Габриэль Антинори человек веры, свободен от любых предрассудков и именно из-за его нетрадиционных характера он очень ценится своими учениками.
Во время своей работы по изучению паранормальных явлений, Габриэль Антинори входит в контакт с Клаудией Мунари, психологом, которая очень трезво смотрит на вещи и всегда ищет логическое объяснение происходящему, даже тогда, когда казалось бы ничто не имеет смысла. Клаудия Мунари считает, что все происходит в человеческом разуме, но сотрудничество со священником приводит к постоянному диалогу между наукой и верой, где ни одна не может победить другую.
Релиз: tfile / Автор: mykaralw
Доп. информация: Канал ТВ3 во время трансляции "подрезал" некоторое серии, поэтому на места без перевода вставлены куски с озвучкой студии ViruseProject.
Качество: DVDRip
Формат: MP4
Видео: AVC, 640x360 (16:9), ~366 Kbps, 25 fps.
Аудио: Русский, AAC, 2 ch, 128 Kbps, 48 KHz
01. Близнецы / Gemelli
02. Анафема / Anatema
03. Предсказания смерти / Presagi di Morte
04. Другая жизнь / Un Altra Vita
05. Ракель / Rachele
06. Пятно Люцифера / La Macchia di Lucifero
07. Со звезд / Dalle stelle
08. Выбор / La Scelta
09. Деревня / Il Villaggio
10. Привидения / Fantasmi
11. Круг Плутарха / Il Circolo di Plutarco
12. Пророчество / La Profezia
GeneralComplete name : D:\Раздачи\13.Apostol.S01.E01-12.2012.DVDRip\13.Apostol.S01E01.mp4Format : MPEG-4Format profile : Base MediaCodec ID : isomFile size : 182 MiBDuration : 50mn 52sOverall bit rate : 500 KbpsMovie name : Episod 1. GemelliAlbum : Il tredicesimo apostolo. Season 1. Il prescelto.Performer : Taodue FilmGenre : Fantasy TV SeriesDescription : Made in ItaliaRecorded date : 2012Writing application : Lavf54.29.104Comment : RUS

VideoID : 1Format : AVCFormat/Info : Advanced Video CodecFormat profile : [email protected] settings, CABAC : YesFormat settings, ReFrames : 4 framesCodec ID : avc1Codec ID/Info : Advanced Video CodingDuration : 50mn 52sBit rate : 366 KbpsWidth : 640 pixelsHeight : 360 pixelsDisplay aspect ratio : 16:9Frame rate mode : ConstantFrame rate : 25.000 fpsColor space : YUVChroma subsampling : 4:2:0Bit depth : 8 bitsScan type : ProgressiveBits/(Pixel*Frame) : 0.064Stream size : 133 MiB (73%)Writing library : x264 core 132Encoding settings : cabac=1 / ref=3 / deblock=1:0:0 / analyse=0x3:0x113 / me=hex / subme=7 / psy=1 / psy_rd=1.00:0.00 / mixed_ref=1 / me_range=16 / chroma_me=1 / trellis=1 / 8x8dct=1 / cqm=0 / deadzone=21,11 / fast_pskip=1 / chroma_qp_offset=-2 / threads=6 / lookahead_threads=1 / sliced_threads=0 / nr=0 / decimate=1 / interlaced=0 / bluray_compat=0 / constrained_intra=0 / bframes=3 / b_pyramid=2 / b_adapt=1 / b_bias=0 / direct=1 / weightb=1 / open_gop=0 / weightp=2 / keyint=250 / keyint_min=25 / scenecut=40 / intra_refresh=0 / rc_lookahead=40 / rc=2pass / mbtree=1 / bitrate=366 / ratetol=1.0 / qcomp=0.60 / qpmin=0 / qpmax=69 / qpstep=4 / cplxblur=20.0 / qblur=0.5 / ip_ratio=1.40 / aq=1:1.00

AudioID : 2Format : AACFormat/Info : Advanced Audio CodecFormat profile : LCCodec ID : 40Duration : 50mn 52sBit rate mode : ConstantBit rate : 128 KbpsChannel(s) : 2 channelsChannel positions : Front: L RSampling rate : 48.0 KHzCompression mode : LossyStream size : 46.6 MiB (26%)


Трекер:  [ 19-Дек-2015 10:00 ]

  

Скачать .torrent

Размер .torrent файла 13 KB


Размер: 2.38 GB
Хэш (hash) релиза: b384f526908b65c7c7e061619f076668d07406df

Еще никто не оставлял запись к записи скачать торрент [SERIAL] Тринадцатый апостол: Избранный Il tredicesimo apostolo: Il prescelto . Будь первым!

!Обратная связь