Изтегляне | [JTBC] 히든싱어5 E05 180715 1080p-NEXT | art-6h-gotta-save -> article-26

Скачать через торрент [SERIAL] Тринадцатый апостол - Откровение Il tredicesimo apostolo - La Rivelazione бесплатно русская версия torrent активатор

Статистика раздачи
Размер:  2.26 GB   |    Зарегистрирован:  2 года 7 месяцев   |    .torrent скачан:  20 раз   |   
Раздают:  1  
   
загрузка...
 
Автор Сообщение

Galfimbul

avatar Galfimbul


Тринадцатый апостол - Откровение / Il tredicesimo apostolo - La Rivelazione2 сезон
Год выпуска: 2014
Страна: Италия
Жанр: фантастика, мистика, драма
Продолжительность: ~00:55:00
Перевод: Профессиональный (дублированный) ТВ3
Режиссер: Алексис Кехилл / Alexis Cahill
В ролях: Клаудио Джоэ (Габриэль), Стефано Пеше (Исайя), Клаудия Пандольфи (Клаудия), Луиджи Диберти (Монсеньор Деметрио Антинори), Томмазо Раньо (Сервенти), Элеонора Болла (Дария), Кармело Галати (Лука), Лаура Главан (Агата), Анна Ферцетти (Тереса), Мириам Джованелли (Ребекка Россини), Эрика Аврора (Вера), Лаура Главан (Агата) и др.
Описание: Тринадцатый апостол — телесериал о паранормальных явлениях. Главный герой Габриэль Антинори, молодой священник и одновременно профессор богословия в университе. Он работает в церковной организации «Конгрегация правды", которая изучает мир паранормальных явлений с целью проверки рационально необъяснимых явлений. Организация изучает события, в которых невозможно уловить тонкую грань между добром и злом и она пытается понять их истинную природу.
Несмотря на все трудности, Габриэль Антинори человек веры, свободен от любых предрассудков и именно из-за его нетрадиционных характера он очень ценится своими учениками.
Во время своей работы по изучению паранормальных явлений, Габриэль Антинори входит в контакт с Клаудией Мунари, психологом, которая очень трезво смотрит на вещи и всегда ищет логическое объяснение происходящему, даже тогда, когда казалось бы ничто не имеет смысла. Клаудия Мунари считает, что все происходит в человеческом разуме, но сотрудничество со священником приводит к постоянному диалогу между наукой и верой, где ни одна не может победить другую.
Релиз: tfile / Автор: mykaralw
Качество: SATRip
Формат: MP4
Видео: AVC, 640x360 (16:9), ~412 Kbps, 25 fps
Аудио: Русский, AAC, 2 ch, 128 Kbps, 48 KHz
01. Целитель / Il Guaritore
02. Мученица / La Martire
03. Между жизнью и смертью / Tra La Vita E La Morte
04. Обитель дьявола / La Casa Del Diavolo
05. До тех пор, пока смерть не разлучит вас / Finche Morte Non Vi Separi
06. Паранормальная связь / Legame Paranormale
07. Вера / Fede
08. Договор скрепленный кровью / Patto Di Sangue
09. Человек тьмы / L Uomo Nero
10. Плач дьявола / Il Pianto Del Demonio
11. Темная сила / Il Potere Oscuro
12. Откровение / La Rivelazione
GeneralComplete name : D:\Раздачи\13.Apostol.S02.E01-12.2014.SATRip\13.Apostol.S02E01.mp4Format : MPEG-4Format profile : Base MediaCodec ID : isomFile size : 213 MiBDuration : 54mn 38sOverall bit rate : 546 KbpsMovie name : Episod 1. Il guaritoreAlbum : Il tredicesimo apostolo. Season 2. La Rivelazione.Performer : Taodue FilmGenre : Fantasy TV SeriesDescription : Made in ItaliaRecorded date : 2014Writing application : Lavf54.29.104Comment : RUS

VideoID : 1Format : AVCFormat/Info : Advanced Video CodecFormat profile : [email protected] settings, CABAC : YesFormat settings, ReFrames : 4 framesCodec ID : avc1Codec ID/Info : Advanced Video CodingDuration : 54mn 38sBit rate : 412 KbpsWidth : 640 pixelsHeight : 360 pixelsDisplay aspect ratio : 16:9Frame rate mode : ConstantFrame rate : 25.000 fpsColor space : YUVChroma subsampling : 4:2:0Bit depth : 8 bitsScan type : ProgressiveBits/(Pixel*Frame) : 0.072Stream size : 161 MiB (75%)Writing library : x264 core 132Encoding settings : cabac=1 / ref=3 / deblock=1:0:0 / analyse=0x3:0x113 / me=hex / subme=7 / psy=1 / psy_rd=1.00:0.00 / mixed_ref=1 / me_range=16 / chroma_me=1 / trellis=1 / 8x8dct=1 / cqm=0 / deadzone=21,11 / fast_pskip=1 / chroma_qp_offset=-2 / threads=6 / lookahead_threads=1 / sliced_threads=0 / nr=0 / decimate=1 / interlaced=0 / bluray_compat=0 / constrained_intra=0 / bframes=3 / b_pyramid=2 / b_adapt=1 / b_bias=0 / direct=1 / weightb=1 / open_gop=0 / weightp=2 / keyint=250 / keyint_min=25 / scenecut=40 / intra_refresh=0 / rc_lookahead=40 / rc=2pass / mbtree=1 / bitrate=412 / ratetol=1.0 / qcomp=0.60 / qpmin=0 / qpmax=69 / qpstep=4 / cplxblur=20.0 / qblur=0.5 / ip_ratio=1.40 / aq=1:1.00

AudioID : 2Format : AACFormat/Info : Advanced Audio CodecFormat profile : LCCodec ID : 40Duration : 54mn 37sBit rate mode : ConstantBit rate : 128 KbpsChannel(s) : 2 channelsChannel positions : Front: L RSampling rate : 48.0 KHzCompression mode : LossyStream size : 50.0 MiB (23%)


Трекер:  [ 19-Дек-2015 10:00 ]

  

Скачать .torrent

Размер .torrent файла 12 KB


Размер: 2.26 GB
Хэш (hash) релиза: cb64a6d2bb4e3a50eddd43710ab65d9a0b876fc2

Торренты, похожие на [SERIAL] Тринадцатый апостол - Откровение Il tredicesimo apostolo - La Rivelazione скачать торрент

Форум Название Автор Размер S L Добавлен
Видео (Фильмы/Клипы) ·· [SERIAL] Тринадцатый апостол - Откровение / Il tredicesimo apostolo - La Rivelazione / Сезон: 2 / Серии: 1 - 12 из 12 (Алексис Кехилл / Alexis Cahill) [2014, фантастика, мистика, драма, HDTVRip] [MP4, 640x] Dub ТВ3 Galfimbul 60531586665.64 GB 0 0 1470575213

16:06

7-Авг-16

Еще никто не оставлял запись к записи скачать торрент [SERIAL] Тринадцатый апостол - Откровение Il tredicesimo apostolo - La Rivelazione . Будь первым!

!Обратная связь