Театр (2004 год)
Gloria Trevi en Viña del Mar.

Скачать через торрент [VIDEO] Кавказская пленница, или Новые приключения Шурика бесплатно русская версия torrent активатор

Статистика раздачи
Размер:  1.46 GB   |    Зарегистрирован:  2 года 4 месяца   |    .torrent скачан:  91 раз   |   
Раздают:  1  
   
загрузка...
 
Автор Сообщение

Galfimbul

avatar Galfimbul


Кавказская пленница, или Новые приключения Шурика

Год выпуска: 1966
Страна: СССР
Жанр: мелодрама, комедия, приключения, семейный, музыка
Продолжительность: 01:19:53

Режиссер: Леонид Гайдай

В ролях: Наталья Варлей, Александр Демьяненко, Фрунзик Мкртчян, Владимир Этуш, Георгий Вицин, Евгений Моргунов, Юрий Никулин, Руслан Ахметов, Донара Мкртчян, Михаил Глузский, Нина Гребешкова, Пётр Репнин, Эммануил Геллер, Георгий Милляр, Георгий Светлани, Александр Строев, Леонид Довлатов, Георгий Ахундов, Николай Гаро, Михаил Содорский, Богдан Галустян, Ной Авалиани

Описание: Отправившись в одну из горных республик собирать фольклор, герой фильма Шурик влюбляется в симпатичную девушку - "спортсменку, отличницу, и просто красавицу". Но ее неожиданно похищают, чтобы насильно выдать замуж. Наивный Шурик не сразу смог сообразить, что творится у него под носом, - однако затем отважно ринулся освобождать "кавказскую пленницу"...

Качество: BDRip | Blu-Ray (1080p)
Формат: MP4

Видео: 960x704, [email protected], AR:1.37, 2485 kbps, 23.976 fps
Аудио: 2ch, 48 kHz, 128 kbps

[b]Релиз:

</a></span></span>
ОбщееУникальный идентификатор : 209144129445293285431442089227520364446 (0x9D57B1B469FB6977B4881621DBDCCF9E)Полное имя : ...\[email protected]Формат : MatroskaВерсия формата : Version 4 / Version 2Размер файла : 1,46 ГбайтПродолжительность : 1 ч. 19 м.Общий поток : 2616 Кбит/секНазвание фильма : Кавказская пленница, или Новые приключения Шурика / 1966 [email protected]=-Дата кодирования : UTC 2015-12-15 17:12:40Программа кодирования : mkvmerge v8.6.1 ('Flying') 32bitБиблиотека кодирования : libebml v1.3.3 + libmatroska v1.4.4

ВидеоИдентификатор : 1Формат : AVCФормат/Информация : Advanced Video CodecПрофиль формата : [email protected]Параметр CABAC формата : ДаПараметр ReFrames формата : 9 кадровИдентификатор кодека : V_MPEG4/ISO/AVCПродолжительность : 1 ч. 19 м.Битрейт : 2484 Кбит/секШирина : 960 пикселейВысота : 704 пикселяСоотношение сторон : 4:3Режим частоты кадров : ПостоянныйЧастота кадров : 23,976 (24000/1001) кадра/секЦветовое пространство : YUVСубдискретизация насыщенности : 4:2:0Битовая глубина : 8 битТип развёртки : ПрогрессивнаяБит/(Пиксели*Кадры) : 0.153Размер потока : 1,39 Гбайт (95%)Заголовок : Rip by nnlabetikБиблиотека кодирования : x264 core 148 r2638 7599210Настройки программы : cabac=1 / ref=9 / deblock=1:-2:-1 / analyse=0x3:0x113 / me=umh / subme=11 / psy=1 / psy_rd=1.00:0.00 / mixed_ref=1 / me_range=32 / chroma_me=1 / trellis=2 / 8x8dct=1 / cqm=0 / deadzone=21,11 / fast_pskip=0 / chroma_qp_offset=-2 / threads=4 / lookahead_threads=1 / sliced_threads=0 / nr=0 / decimate=1 / interlaced=0 / bluray_compat=0 / constrained_intra=0 / bframes=12 / b_pyramid=2 / b_adapt=2 / b_bias=0 / direct=3 / weightb=1 / open_gop=0 / weightp=0 / keyint=240 / keyint_min=23 / scenecut=40 / intra_refresh=0 / rc_lookahead=60 / rc=2pass / mbtree=0 / bitrate=2484 / ratetol=1.0 / qcomp=0.60 / qpmin=0 / qpmax=69 / qpstep=4 / cplxblur=20.0 / qblur=0.5 / vbv_maxrate=50000 / vbv_bufsize=62500 / nal_hrd=none / filler=0 / ip_ratio=1.30 / pb_ratio=1.20 / aq=1:1.00Язык : RussianDefault : ДаForced : НетЦветовой диапазон : LimitedОсновные цвета : BT.709Характеристики трансфера : BT.709Коэффициенты матрицы : BT.709

АудиоИдентификатор : 2Формат : AACФормат/Информация : Advanced Audio CodecПрофиль формата : LCИдентификатор кодека : A_AACПродолжительность : 1 ч. 19 м.Битрейт : 129 Кбит/секКаналы : 2 каналаРасположение каналов : Front: L RЧастота : 48,0 КГцЧастота кадров : 46,875 кадров/сек (1024 spf)Метод сжатия : С потерямиРазмер потока : 73,7 Мбайт (5%)Язык : RussianDefault : ДаForced : Нет

Меню00:00:00.000 : :Chapter 0100:05:52.477 : :Chapter 0200:09:11.717 : :Chapter 0300:11:31.190 : :Chapter 0400:16:08.550 : :Chapter 0500:23:07.969 : :Chapter 0600:26:04.729 : :Chapter 0700:31:01.234 : :Chapter 0800:33:40.435 : :Chapter 0900:38:45.906 : :Chapter 1000:44:11.148 : :Chapter 1100:51:10.734 : :Chapter 1200:57:19.227 : :Chapter 1301:00:15.069 : :Chapter 1401:13:13.430 : :Chapter 1501:18:14.856 : :Chapter 1601:19:52.871 : :Chapter 17


Трекер:  [ 15-Дек-2015 21:30 ]

  

Скачать .torrent

Размер .torrent файла 15 KB


Размер: 1.46 GB
Хэш (hash) релиза: 8adec67ce7f4df7203eec07396271ca2f937a632

Еще никто не оставлял запись к записи скачать торрент [VIDEO] Кавказская пленница, или Новые приключения Шурика . Будь первым!

!Обратная связь