White Dwarf Issue 67: 09th May 2015 | • The End of the F***ing World 8.2 | GURUSLODGE ADVERTS

Скачать через торрент [SERIAL] Спартак: Месть Spartacus: Vengeance бесплатно русская версия torrent активатор

Статистика раздачи
Размер:  1.8 GB   |    Зарегистрирован:  2 года 7 месяцев   |    .torrent скачан:  49 раз   |   
Раздают:  1  
   
загрузка...
 
Автор Сообщение

Galfimbul

avatar Galfimbul



Спартак: Месть / Spartacus: Vengeance2 сезон
Год выпуска: 2012
Страна: США
Жанр: боевик, драма, исторический
Продолжительность: ~00:57:00
Перевод: Профессиональный (многоголосый, закадровый) LostFilm
Режиссер: Майкл Херст, Джесси Уарн, Рик Джейкобсон
В ролях: Лиам МакИнтайр (Spartacus), Ману Беннетт (Crixus), Питер Менса (Doctore), Ник Тарабэй (Ashur), Вива Бьянка (Ilithyia), Катрина Ло (Mira), Крэйг Паркер (Glaber), Лесли-Энн Брандт (Naevia), Люси Лоулесс (Lucretia).
Описание: след за кровавым побегом из дома Батиата, восстание гладиаторов начинает вселять страх в сердце Римской республики. Гай Клавдий Глабр и его римские войска направляются в Капую разбить, с каждым днём растущую группу освобожденных рабов, под предводительством лучшего римского гладиатора Спартака. Спартаку выпадает шанс отомстить человеку обрекшего его на рабство, а его жену на смерть. Вы увидите невероятную историю мести Спартака, всю кровь пролившуюся на римские земли во время восстания, самый страстный секс, подлость, предательства, героизм...
Релиз: Torrent-Mob / Автор: BOOM
Качество: HDRip
Формат: 3GP
Видео кодек: Другой MPEG4
Аудио кодек: AAC
Видео: MPEG-4 Visual, 320x176 (16:9), 330 Kbps, 23.976 fps
Аудио: Русский, AAC, 2 ch, 128 Kbps, 48 KHz
01. Беглый / Fugitivus
02. Место в этом мире / A Place in this World
03. Высшее благо / The Greater Good
04. Пустые руки / Empty Hands
05. Вольный / Libertus
06. Избранный путь / Chosen Path
07. Клятва / Sacramentum
08. Чаши весов / Balance
09. Чудовища / Monsters
10. Гнев богов / Wrath of the Gods
General
Complete name : D:\Раздачи\Spartacus.Vengeance.S02.E01-10\Spartacus.Vengeance.s01e01.3gp
Format : MPEG-4
Format profile : 3GPP Media Release 5
Codec ID : 3gp5
File size : 185 MiB
Duration : 56mn 10s
Overall bit rate mode : Variable
Overall bit rate : 461 Kbps
Encoded date : UTC 2012-03-16 17:57:29
Tagged date : UTC 2012-03-16 17:57:29

Video
ID : 1
Format : MPEG-4 Visual
Format profile : [email protected]
Format settings, BVOP : No
Format settings, QPel : No
Format settings, GMC : No warppoints
Format settings, Matrix : Default (H.263)
Codec ID : 20
Duration : 56mn 10s
Bit rate mode : Variable
Bit rate : 330 Kbps
Maximum bit rate : 1 304 Kbps
Width : 320 pixels
Height : 176 pixels
Display aspect ratio : 16:9
Frame rate mode : Constant
Frame rate : 23.976 fps
Color space : YUV
Chroma subsampling : 4:2:0
Bit depth : 8 bits
Scan type : Progressive
Compression mode : Lossy
Bits/(Pixel*Frame) : 0.244
Stream size : 133 MiB (72%)
Title : Imported with GPAC 0.4.6-DEV (build 1)
Writing library : Lavc52.41.0
Encoded date : UTC 2012-03-16 17:57:29
Tagged date : UTC 2012-03-16 17:57:33

Audio
ID : 2
Format : AAC
Format/Info : Advanced Audio Codec
Format profile : LC
Codec ID : 40
Duration : 56mn 10s
Bit rate mode : Variable
Bit rate : 128 Kbps
Maximum bit rate : 159 Kbps
Channel(s) : 2 channels
Channel positions : Front: L R
Sampling rate : 48.0 KHz
Compression mode : Lossy
Stream size : 51.4 MiB (28%)
Encoded date : UTC 2012-03-16 17:57:32
Tagged date : UTC 2012-03-16 17:57:33


Трекер:  [ 15-Дек-2015 13:30 ]

  

Скачать .torrent

Размер .torrent файла 19 KB


Размер: 1.8 GB
Хэш (hash) релиза: b93bf5a44ed3e9ac593c2a961472e8ced3238480

Еще никто не оставлял запись к записи скачать торрент [SERIAL] Спартак: Месть Spartacus: Vengeance . Будь первым!

!Обратная связь