[AD] Coleccion Comics XXX y Eroticos Mexico [Beso Negro - Sin Autochupadas no hay Paraiso y otr ... | HD Annabelle 2 - Creation (2017) | 00:02:30 Hell Fest - Official Teaser Trailer Hell Fest is in theaters September 28. Jul 17, 1:42pm

Скачать через торрент [SERIAL] Спартак: Кровь и Песок Spartacus: Blood and Sand бесплатно русская версия torrent активатор

Статистика раздачи
Размер:  2.21 GB   |    Зарегистрирован:  2 года 7 месяцев   |    .torrent скачан:  58 раз   |   
Раздают:  1  
   
загрузка...
 
Автор Сообщение

Galfimbul

avatar Galfimbul



Спартак: Кровь и Песок / Spartacus: Blood and Sand
Год выпуска: 2010
Страна: США
Жанр: action, adventure, biography, drama, history
Продолжительность: ~00:52:00
Перевод: Профессиональный (полное дублирование) РенТВ
Режиссер: Майкл Херст, Джесси Уарн, Рик Джейкобсон
В ролях: Энди Уитфилд (Спартак), Джон Ханна (Батиат), Люси Лоулесс (Лукреция), Антонио Те Майохо (Барка), Крэйг Паркер (Глабр), Эрин Каммингс (Сура), Ману Беннетт (Крикс), Ник Тарабей (Ашур), Питер Менса (Наставник), Вива Бьянка (Илития), Джей Кортни (Варрон), Мэтт Джилландерс (Марцелл), Лесли-Энн Брандт (Нэвия), Кайл Прайор (Марк).
Описание: «Спартак: Кровь и песок» — это жесткий и выразительный рассказ о самом знаменитом из римских гладиаторов. Спартака разлучили с любовью всей его жизни и заставили выходить на арену, где смерть — лучшее развлечение для толпы. Спартак должен бороться за выживание, подружиться с врагами, и усвоить политику нового мира жестокости, секса и славы. Его будут соблазнять властью и изводить местью. Но его страсть даст ему силы преодолеть все испытания в этой истории о смерти, чести и стойкости.
Релиз: Torrent-Mob / Автор: BOOM
Качество: HDRip
Формат: 3GP
Видео кодек: H.264
Аудио кодек: AAC
Видео: H.264, 320x176 (16:9), 330 Kbps, 23.976 fps
Аудио: Русский, AAC, 2 ch, 128 Kbps, 48 KHz
01. Красный змей / The Red Serpent
02. Клятва гладиаторов / Sacramentum Gladiatorum
03. Легенды / Legends
04. Зверь в яме / The Thing in the Pit
05. Теневые игры / Shadow Games
06. Щекотливые дела / Delicate Things
07. Великие и печальные события / Great and Unfortunate Things
08. Клеймо Братства / Mark of the Brotherhood
09. Шлюха / Whore
10. Праздничные подарки / Party Favors
11. Старые раны / Old Wounds
12. Разоблачения / Revelations
13. Убей их всех / Kill Them All
General
Complete name : D:\Раздачи\Spartacus.Blood.and.Sand.S01.E01-13.2010.HDRip\Spartacus.Blood.and.Sand.S01.E01.HDRip.3gp
Format : MPEG-4
Format profile : 3GPP Media Release 6 Basic
Codec ID : 3gp6
File size : 181 MiB
Duration : 54mn 56s
Overall bit rate mode : Variable
Overall bit rate : 460 Kbps
Encoded date : UTC 2011-04-29 16:41:38
Tagged date : UTC 2011-04-29 16:41:38

Video
ID : 1
Format : AVC
Format/Info : Advanced Video Codec
Format profile : [email protected]
Format settings, CABAC : No
Format settings, ReFrames : 6 frames
Codec ID : avc1
Codec ID/Info : Advanced Video Coding
Duration : 54mn 56s
Bit rate : 330 Kbps
Maximum bit rate : 1 537 Kbps
Width : 320 pixels
Height : 176 pixels
Display aspect ratio : 16:9
Frame rate mode : Constant
Frame rate : 23.976 fps
Color space : YUV
Chroma subsampling : 4:2:0
Bit depth : 8 bits
Scan type : Progressive
Bits/(Pixel*Frame) : 0.244
Stream size : 130 MiB (72%)
Title : Imported with GPAC 0.4.6-DEV (build 1)
Writing library : x264 core 79 r1342kMod e8501ef
Encoding settings : cabac=0 / ref=6 / deblock=1:0:0 / analyse=0x1:0x131 / me=umh / subme=6 / psy=1 / psy_rd=1.0:0.0 / mixed_ref=1 / me_range=16 / chroma_me=1 / trellis=0 / 8x8dct=0 / cqm=0 / deadzone=21,11 / chroma_qp_offset=-2 / threads=3 / nr=0 / decimate=1 / mbaff=0 / constrained_intra=0 / bframes=0 / wpredp=0 / keyint=250 / keyint_min=25 / scenecut=40 / rc_lookahead=40 / rc=2pass / mbtree=1 / bitrate=330 / ratetol=1.0 / qcomp=0.60 / qpmin=10 / qpmax=51 / qpstep=4 / cplxblur=20.0 / qblur=0.5 / ip_ratio=1.40 / aq=1:1.00
Encoded date : UTC 2011-04-29 16:41:38
Tagged date : UTC 2011-04-29 16:41:43

Audio
ID : 2
Format : AAC
Format/Info : Advanced Audio Codec
Format profile : LC
Codec ID : 40
Duration : 54mn 56s
Bit rate mode : Variable
Bit rate : 128 Kbps
Maximum bit rate : 147 Kbps
Channel(s) : 2 channels
Channel positions : Front: L R
Sampling rate : 48.0 KHz
Compression mode : Lossy
Stream size : 50.3 MiB (28%)
Encoded date : UTC 2011-04-29 16:41:42
Tagged date : UTC 2011-04-29 16:41:43


Трекер:  [ 15-Дек-2015 08:30 ]

  

Скачать .torrent

Размер .torrent файла 12 KB


Размер: 2.21 GB
Хэш (hash) релиза: 587cfd085aab63495da4e2a363f48cacfed4479d

Еще никто не оставлял запись к записи скачать торрент [SERIAL] Спартак: Кровь и Песок Spartacus: Blood and Sand . Будь первым!

!Обратная связь