Law & Order: Special Victims Unit | Maria Wern, Kripo Gotland | Dok Ruk Rim Tang

Скачать через торрент [VIDEO] Жестокий романс бесплатно русская версия torrent активатор

Статистика раздачи
Размер:  1.16 GB   |    Зарегистрирован:  2 года 7 месяцев   |    .torrent скачан:  23 раза   |   
Раздают:  1  
   
загрузка...
 
Автор Сообщение

Galfimbul

avatar Galfimbul


Жестокий романс

Год выпуска: 1984
Дистрибьютор: «Крупный план»
Страна: СCCP
Жанр: драма
Продолжительность: 02:16:54
Перевод: Не требуется
Cубтитры: нет
Режиссер: Эльдар Рязанов
В ролях: Алиса Фрейндлих, Лариса Гузеева, Никита Михалков, Андрей Мягков, Алексей Петренко, Виктор Проскурин,
Георгий Бурков, Татьяна Панкова, Борислав Брондуков, Александр Пятков, Юрий Саранцев, Ольга Волкова и другие .
Описание: Безжалостен и жесток мир, в котором правят деньги, где все продается и покупается, в том числе совесть, красота, любовь .
Релиз группы
Качество: DVDRip / [url=...4349927]рип с DVD5 (Custom)[/url] Формат: MP4 Видео кодек: H.264 Аудио кодек: AAC
Видео: 478x360 AR:4/3 1080 kbps 25 fps Аудио: 2ch 48 kHz 128 kbps

Фильм снят по мотивам пьесы Александра Островского «Бесприданница».
Фильм демонстрировался в прокате в виде двух серий.
Андрей Мягков едва не погиб на съемках. В одном из эпизодов ему пришлось подплыть на лодке слишком близко к старинному пароходу. Лопасти судна образовали на воде воронку. На глазах съемочной группы лодка с актером сгинула в пучине реки. К счастью, через несколько минут над водой появилась голова Андрея Мягкова. Каким-то чудом он уцелел и выбрался на берег без единой царапины.
В фильме снимались пароходы «Спартак» и «Володарский».
Лучший фильм по опросу журнала «Советский экран» в 1985 году.
«В роли» железнодорожного вокзала выступило здание Костромского театра кукол.

...last pass...

x264.exe: --pass 2 --bitrate 1080 --preset medium --profile high --level 4.1 --ref 9 --aq-strength 0.7 --merange 48 --bframes 8 --direct auto --b-adapt 2 --trellis 2 --no-fast-pskip --no-dct-decimate --psy-rd 0.80:0.00 --partitions all --subme 11 --me umh --colorprim bt470bg --transfer bt470bg --colormatrix bt470bg --sar 1:1 --stats "D:\VTS_01_1_001.log" --output "D:\VTS_01_1_001.mp4" "D:\XVID4PSP 5\Temp\0260.avs"

avs [info]: 478x360p 1:1 @ 25/1 fps (cfr)
x264 [info]: using SAR=1/1
x264 [info]: using cpu capabilities: MMX2 SSE2Fast SSSE3 SSE4.2 LZCNT
x264 [info]: profile High, level 4.1

x264 [info]: frame I:1116 Avg QP:17.05 size: 33887
x264 [info]: frame P:44527 Avg QP:20.32 size: 14078
x264 [info]: frame B:159709 Avg QP:24.87 size: 2781
x264 [info]: consecutive B-frames: 1.1% 2.1% 7.6% 26.9% 17.2% 39.8% 3.5% 1.0% 0.7%
x264 [info]: mb I I16..4: 4.6% 66.5% 28.9%
x264 [info]: mb P I16..4: 0.6% 8.2% 2.0% P16..4: 31.1% 36.1% 17.2% 3.1% 0.4% skip: 1.4%
x264 [info]: mb B I16..4: 0.0% 0.8% 0.2% B16..8: 34.4% 20.2% 3.2% direct: 5.0% skip:36.2% L0:33.7% L1:42.0% BI:24.3%
x264 [info]: 8x8 transform intra:74.9% inter:60.2%
x264 [info]: direct mvs spatial:97.1% temporal:2.9%
x264 [info]: coded y,uvDC,uvAC intra: 91.2% 73.9% 39.3% inter: 27.8% 17.3% 6.7%
x264 [info]: i16 v,h,dc,p: 37% 19% 4% 40%
x264 [info]: i8 v,h,dc,ddl,ddr,vr,hd,vl,hu: 16% 9% 5% 9% 13% 13% 12% 12% 12%
x264 [info]: i4 v,h,dc,ddl,ddr,vr,hd,vl,hu: 23% 10% 4% 7% 12% 13% 10% 10% 10%
x264 [info]: i8c dc,h,v,p: 32% 26% 25% 17%
x264 [info]: Weighted P-Frames: Y:14.1% UV:2.6%
x264 [info]: ref P L0: 45.0% 16.0% 18.4% 5.5% 4.7% 3.1% 3.1% 1.6% 2.0% 0.5% 0.0%
x264 [info]: ref B L0: 88.6% 7.0% 1.8% 0.9% 0.6% 0.5% 0.3% 0.2%
x264 [info]: ref B L1: 96.6% 3.4%
x264 [info]: kb/s:1079.91

x264 [total]: encoded 205352 frames, 11.24 fps, 1079.91 kb/s
ОбщееПолное имя : D:\Torrents\Zhestokiy romans.1984.DVDRip.x264.640x.rip by Frost O.S.mp4Формат : MPEG-4Профиль формата : Base MediaИдентификатор кодека : isomРазмер файла : 1,16 ГбайтПродолжительность : 2 ч. 16 м.Режим общего битрейта : ПеременныйОбщий поток : 1216 Кбит/секНазвание фильма : Zhestokiy romans 1984 DVDRip x264 640x rip by Frost O SТип содержимого : Short FilmДата кодирования : UTC 2015-12-09 15:24:24Дата пометки : UTC 2015-12-09 15:25:51Программа кодирования : MkvToMp4 version: 0.224 (x64)Примечание : rip by Frost O.S

ВидеоИдентификатор : 1Формат : AVCФормат/Информация : Advanced Video CodecПрофиль формата : [email protected]Параметр CABAC формата : ДаПараметр ReFrames формата : 9 кадровИдентификатор кодека : avc1Идентификатор кодека/Информация : Advanced Video CodingПродолжительность : 2 ч. 16 м.Битрейт : 1080 Кбит/секМаксимальный битрейт : 5309 Кбит/секШирина : 478 пикселейВысота : 360 пикселейСоотношение сторон : 4:3Режим частоты кадров : ПостоянныйЧастота кадров : 25,000 кадров/секЦветовое пространство : YUVСубдискретизация насыщенности : 4:2:0Битовая глубина : 8 битТип развёртки : ПрогрессивнаяБит/(Пиксели*Кадры) : 0.251Размер потока : 1,03 Гбайт (89%)Библиотека кодирования : x264 core 130 r2273 b3065e6Настройки программы : cabac=1 / ref=9 / deblock=1:0:0 / analyse=0x3:0x133 / me=umh / subme=11 / psy=1 / psy_rd=0.80:0.00 / mixed_ref=1 / me_range=48 / chroma_me=1 / trellis=2 / 8x8dct=1 / cqm=0 / deadzone=21,11 / fast_pskip=0 / chroma_qp_offset=-2 / threads=3 / lookahead_threads=1 / sliced_threads=0 / nr=0 / decimate=0 / interlaced=0 / bluray_compat=0 / constrained_intra=0 / bframes=8 / b_pyramid=2 / b_adapt=2 / b_bias=0 / direct=3 / weightb=1 / open_gop=0 / weightp=2 / keyint=250 / keyint_min=25 / scenecut=40 / intra_refresh=0 / rc_lookahead=40 / rc=2pass / mbtree=1 / bitrate=1080 / ratetol=1.0 / qcomp=0.60 / qpmin=0 / qpmax=69 / qpstep=4 / cplxblur=20.0 / qblur=0.5 / ip_ratio=1.40 / aq=1:0.70Язык : EnglishДата кодирования : UTC 2015-12-09 15:24:24Дата пометки : UTC 2015-12-09 15:24:44Цветовой диапазон : LimitedОсновные цвета : BT.601 PALХарактеристики трансфера : BT.470 System B, BT.470 System GКоэффициенты матрицы : BT.601

АудиоИдентификатор : 2Формат : AACФормат/Информация : Advanced Audio CodecПрофиль формата : LCИдентификатор кодека : 40Продолжительность : 2 ч. 16 м.Вид битрейта : ПеременныйБитрейт : 128 Кбит/секМаксимальный битрейт : 132 Кбит/секКаналы : 2 каналаРасположение каналов : Front: L RЧастота : 48,0 КГцМетод сжатия : С потерямиРазмер потока : 125 Мбайт (11%)Язык : RussianДата кодирования : UTC 2015-12-09 15:24:40Дата пометки : UTC 2015-12-09 15:24:44


Трекер:  [ 12-Дек-2015 16:00 ]

  

Скачать .torrent

Размер .torrent файла 12 KB


Размер: 1.16 GB
Хэш (hash) релиза: 264d50aa2f0860d8e68396643879e8f9d932b99e

Еще никто не оставлял запись к записи скачать торрент [VIDEO] Жестокий романс . Будь первым!

!Обратная связь