Latest Hindi Albums | Courage der feige Hund | Wiets Kirsten

Скачать через торрент [VIDEO] Макс Max бесплатно русская версия torrent активатор

Статистика раздачи
Размер:  1.45 GB   |    Зарегистрирован:  2 года 7 месяцев   |    .torrent скачан:  28 раз   |   
Раздают:  1  
   
загрузка...
 
Автор Сообщение

Galfimbul

avatar Galfimbul



Макс / Max

«Best Friend. Hero. Marine»
Год выпуска: 2015
Страна: США
Жанр: приключения, семейный
Продолжительность: 01:50:58
Перевод: Профессиональный (многоголосый, закадровый) Blu-ray CEE
Cубтитры: нет
Режиссеры: Боаз Якин / Boaz Yakin
В ролях: Томас Хейден Чёрч, Джош Уиггинс, Люк Клеинтенк, Лорен Грэм, Робби Амелл, Mia Xitlali, Dejon LaQuake, Джей Эрнандес, Оуэн Харн, Джозеф Джулиан Сория и другие .
Описание: История о собаке, которая помогала солдатам в Афганистане. После трагического происшествия собаку забирает к себе домой семья ответственного за нее солдата.
Релиз группы
Качество:HDRip / рип с BDRip 720p Формат: MP4
Видео кодек: H.264 Аудио кодек: AAC Видео: 960x398 AR: 2.40 1740 kbps 23.976 fps
Аудио: [Русский] 2ch 48 kHz 128 kbps [MVO] Blu-ray CEE

avs [info]: 960x398p 1:1 @ 2997/125 fps (cfr)
x264 [info]: using SAR=1/1
x264 [info]: using cpu capabilities: MMX2 SSE2Fast SSSE3 SSE4.2 LZCNT
x264 [info]: profile High, level 4.1

x264 [info]: frame I:1317 Avg QP:16.49 size: 78620
x264 [info]: frame P:44611 Avg QP:20.73 size: 19650
x264 [info]: frame B:113702 Avg QP:24.17 size: 4110
x264 [info]: consecutive B-frames: 6.7% 6.1% 10.8% 29.5% 12.9% 26.9% 4.0% 2.4% 0.6%
x264 [info]: mb I I16..4: 6.5% 64.7% 28.7%
x264 [info]: mb P I16..4: 0.7% 8.6% 1.7% P16..4: 34.0% 35.9% 12.9% 0.0% 0.0% skip: 6.1%
x264 [info]: mb B I16..4: 0.1% 1.2% 0.2% B16..8: 35.6% 14.7% 2.2% direct: 3.1% skip:42.9% L0:40.0% L1:47.1% BI:12.9%
x264 [info]: 8x8 transform intra:76.2% inter:58.3%
x264 [info]: direct mvs spatial:95.7% temporal:4.3%
x264 [info]: coded y,uvDC,uvAC intra: 89.9% 78.1% 46.6% inter: 21.5% 15.6% 7.9%
x264 [info]: i16 v,h,dc,p: 27% 18% 5% 50%
x264 [info]: i8 v,h,dc,ddl,ddr,vr,hd,vl,hu: 7% 9% 3% 10% 15% 13% 16% 12% 15%
x264 [info]: i4 v,h,dc,ddl,ddr,vr,hd,vl,hu: 10% 11% 4% 8% 14% 13% 15% 10% 15%
x264 [info]: i8c dc,h,v,p: 34% 28% 19% 19%
x264 [info]: Weighted P-Frames: Y:3.3% UV:1.4%
x264 [info]: ref P L0: 59.2% 15.4% 11.3% 5.3% 3.3% 2.9% 2.3% 0.4% 0.0%
x264 [info]: ref B L0: 82.9% 8.2% 4.5% 2.7% 1.1% 0.5%
x264 [info]: ref B L1: 92.8% 7.2%
x264 [info]: kb/s:1739.29

x264 [total]: encoded 159630 frames, 7.96 fps, 1739.29 kb/s
GeneralComplete name : D:\Torrents\Max.2015.HDRip.x264.960x.rip by Frost O.S.mp4Format : MPEG-4Format profile : Base MediaCodec ID : isomFile size : 1.45 GiBDuration : 1h 50mnOverall bit rate mode : VariableOverall bit rate : 1 875 KbpsMovie name : Max 2015 HDRip x264 960x rip by Frost O SContentType : Short FilmEncoded date : UTC 2015-12-07 14:47:20Tagged date : UTC 2015-12-07 14:48:49Writing application : MkvToMp4 version: 0.224 (x64)Comment : rip by Frost O.S

VideoID : 1Format : AVCFormat/Info : Advanced Video CodecFormat profile : [email protected] settings, CABAC : YesFormat settings, ReFrames : 7 framesCodec ID : avc1Codec ID/Info : Advanced Video CodingDuration : 1h 50mnBit rate : 1 740 KbpsMaximum bit rate : 11.1 MbpsWidth : 960 pixelsHeight : 398 pixelsDisplay aspect ratio : 2.40:1Frame rate mode : ConstantFrame rate : 23.976 fpsColor space : YUVChroma subsampling : 4:2:0Bit depth : 8 bitsScan type : ProgressiveBits/(Pixel*Frame) : 0.190Stream size : 1.35 GiB (93%)Writing library : x264 core 130 r2273 b3065e6Encoding settings : cabac=1 / ref=7 / deblock=1:0:0 / analyse=0x3:0x113 / me=umh / subme=11 / psy=1 / psy_rd=1.00:0.00 / mixed_ref=1 / me_range=32 / chroma_me=1 / trellis=2 / 8x8dct=1 / cqm=0 / deadzone=21,11 / fast_pskip=0 / chroma_qp_offset=-2 / threads=3 / lookahead_threads=1 / sliced_threads=0 / nr=0 / decimate=0 / interlaced=0 / bluray_compat=0 / constrained_intra=0 / bframes=8 / b_pyramid=2 / b_adapt=2 / b_bias=0 / direct=3 / weightb=1 / open_gop=0 / weightp=2 / keyint=250 / keyint_min=23 / scenecut=40 / intra_refresh=0 / rc_lookahead=40 / rc=2pass / mbtree=1 / bitrate=1740 / ratetol=1.0 / qcomp=0.60 / qpmin=0 / qpmax=69 / qpstep=4 / cplxblur=20.0 / qblur=0.5 / ip_ratio=1.40 / aq=1:1.00Language : EnglishEncoded date : UTC 2015-12-07 14:47:20Tagged date : UTC 2015-12-07 14:47:52Color range : LimitedColor primaries : BT.709Transfer characteristics : BT.709Matrix coefficients : BT.709

AudioID : 2Format : AACFormat/Info : Advanced Audio CodecFormat profile : LCCodec ID : 40Duration : 1h 50mnBit rate mode : VariableBit rate : 128 KbpsMaximum bit rate : 135 KbpsChannel(s) : 2 channelsChannel positions : Front: L RSampling rate : 48.0 KHzCompression mode : LossyStream size : 102 MiB (7%)Title : MVO_ Blu_ray CEE / MVO_ Blu_ray CEELanguage : RussianEncoded date : UTC 2015-12-07 14:47:42Tagged date : UTC 2015-12-07 14:47:52


Трекер:  [ 09-Дек-2015 13:00 ]

  

Скачать .torrent

Размер .torrent файла 15 KB


Размер: 1.45 GB
Хэш (hash) релиза: 1a2a6a960cbfd68db16d3b6a45f1a03e5fe79e73

Торренты, похожие на [VIDEO] Макс Max скачать торрент

Форум Название Автор Размер S L Добавлен
Видео (Фильмы/Клипы) ·· [VIDEO] Макс / Max (Боаз Якин / Boaz Yakin) [2015, приключения, семейный, HDRip] [MP4, 480x] MVO Galfimbul 528866718504 MB 0 0 1449659602

14:13

9-Дек-15

Видео (Фильмы/Клипы) ·· [VIDEO] Безумный Макс: Дорога ярости / Mad Max: Fury Road (Джордж Миллер / George Miller) [2015, боевик, фантастика, приключения, HDRip] [MP4, 480x] Dub BD CEE Galfimbul 577904813551 MB 0 0 1494013065

22:37

5-Май-17

Видео (Фильмы/Клипы) ·· [VIDEO] Безумный Макс: Дорога ярости / Mad Max: Fury Road (Джордж Миллер / George Miller) [2015, боевик, фантастика, приключения, BDRip] [MP4, 960x] Galfimbul 27615228142.57 GB 0 0 1494006492

20:48

5-Май-17

Видео (Фильмы/Клипы) ·· [VIDEO] Безумный Макс: Дорога ярости / Mad Max: Fury Road (Джордж Миллер / George Miller) [2015, боевик, фантастика, приключения, BDRip] [MP4, 1280x] Galfimbul 28505227512.65 GB 0 0 1480193319

23:48

26-Ноя-16

Видео (Фильмы/Клипы) ·· [VIDEO] Секс на две ночи / Two Night Stand (Макс Николс / Max Nichols) [2014, комедия, мелодрама, HDRip] [MP4, 960x] MVO Galfimbul 933112048890 MB 0 0 1421872069

23:27

21-Янв-15

Еще никто не оставлял запись к записи скачать торрент [VIDEO] Макс Max . Будь первым!

!Обратная связь