2 Comment | Download | Play Movie

Скачать через торрент [VIDEO] Макс Max бесплатно русская версия torrent активатор

Статистика раздачи
Размер:  504 MB   |    Зарегистрирован:  2 года 7 месяцев   |    .torrent скачан:  27 раз   |   
Раздают:  1  
   
загрузка...
 
Автор Сообщение

Galfimbul

avatar Galfimbul



Макс / Max

«Best Friend. Hero. Marine»
Год выпуска: 2015
Страна: США
Жанр: приключения, семейный
Продолжительность: 01:50:58
Перевод: Профессиональный (многоголосый, закадровый) Blu-ray CEE
Cубтитры: нет
Режиссеры: Боаз Якин / Boaz Yakin
В ролях: Томас Хейден Чёрч, Джош Уиггинс, Люк Клеинтенк, Лорен Грэм, Робби Амелл, Mia Xitlali, Dejon LaQuake, Джей Эрнандес, Оуэн Харн, Джозеф Джулиан Сория и другие .
Описание: История о собаке, которая помогала солдатам в Афганистане. После трагического происшествия собаку забирает к себе домой семья ответственного за нее солдата.
Релиз группы
Качество:HDRip / рип с BDRip 720p Формат: MP4
Видео кодек: XviD Аудио кодек: AAC Видео: 480x200 AR: 2.40 500 kbps 23.976 fps
Аудио: [Русский] 2ch 48 kHz 128 kbps [MVO] Blu-ray CEE
GeneralComplete name : D:\Torrents\Max.2015.HDRip.XviD.480x.rip by Frost O.S.mp4Format : MPEG-4Format profile : Base MediaCodec ID : isomFile size : 504 MiBDuration : 1h 50mnOverall bit rate mode : VariableOverall bit rate : 635 KbpsMovie name : Max 2015 HDRip XviD 480x rip by Frost O SContentType : Short FilmEncoded date : UTC 2015-12-07 14:50:32Tagged date : UTC 2015-12-07 14:51:09Writing application : MkvToMp4 version: 0.224 (x64)Comment : rip by Frost O.S

VideoID : 1Format : MPEG-4 VisualFormat profile : Advanced [email protected] settings, BVOP : YesFormat settings, QPel : NoFormat settings, GMC : No warppointsFormat settings, Matrix : CustomCodec ID : 20Duration : 1h 50mnBit rate mode : VariableBit rate : 500 KbpsMaximum bit rate : 2 851 KbpsWidth : 480 pixelsHeight : 200 pixelsDisplay aspect ratio : 2.40:1Frame rate mode : ConstantFrame rate : 23.976 fpsColor space : YUVChroma subsampling : 4:2:0Bit depth : 8 bitsScan type : ProgressiveCompression mode : LossyBits/(Pixel*Frame) : 0.217Stream size : 397 MiB (79%)Writing library : XviD 73Language : EnglishTagged date : UTC 2015-12-07 14:50:47

AudioID : 2Format : AACFormat/Info : Advanced Audio CodecFormat profile : LCCodec ID : 40Duration : 1h 50mnBit rate mode : VariableBit rate : 128 KbpsMaximum bit rate : 135 KbpsChannel(s) : 2 channelsChannel positions : Front: L RSampling rate : 48.0 KHzCompression mode : LossyStream size : 102 MiB (20%)Title : MVO_ Blu_ray CEE / MVO_ Blu_ray CEELanguage : RussianEncoded date : UTC 2015-12-07 14:50:44Tagged date : UTC 2015-12-07 14:50:47


Трекер:  [ 09-Дек-2015 13:00 ]

  

Скачать .torrent

Размер .torrent файла 20 KB


Размер: 504 MB
Хэш (hash) релиза: 2950bcfc27bd95349df13f72afdd1928f99afd78

Торренты, похожие на [VIDEO] Макс Max скачать торрент

Форум Название Автор Размер S L Добавлен
Видео (Фильмы/Клипы) ·· [VIDEO] Макс / Max (Боаз Якин / Boaz Yakin) [2015, приключения, семейный, HDRip] [MP4, 960x] MVO Galfimbul 15604708221.45 GB 0 0 1449659606

14:13

9-Дек-15

Видео (Фильмы/Клипы) ·· [VIDEO] Безумный Макс: Дорога ярости / Mad Max: Fury Road (Джордж Миллер / George Miller) [2015, боевик, фантастика, приключения, HDRip] [MP4, 480x] Dub BD CEE Galfimbul 577904813551 MB 0 0 1494013065

22:37

5-Май-17

Видео (Фильмы/Клипы) ·· [VIDEO] Безумный Макс: Дорога ярости / Mad Max: Fury Road (Джордж Миллер / George Miller) [2015, боевик, фантастика, приключения, BDRip] [MP4, 960x] Galfimbul 27615228142.57 GB 0 0 1494006492

20:48

5-Май-17

Видео (Фильмы/Клипы) ·· [VIDEO] Безумный Макс: Дорога ярости / Mad Max: Fury Road (Джордж Миллер / George Miller) [2015, боевик, фантастика, приключения, BDRip] [MP4, 1280x] Galfimbul 28505227512.65 GB 0 0 1480193319

23:48

26-Ноя-16

Видео (Фильмы/Клипы) ·· [VIDEO] Секс на две ночи / Two Night Stand (Макс Николс / Max Nichols) [2014, комедия, мелодрама, HDRip] [MP4, 960x] MVO Galfimbul 933112048890 MB 0 0 1421872069

23:27

21-Янв-15

Еще никто не оставлял запись к записи скачать торрент [VIDEO] Макс Max . Будь первым!

!Обратная связь