[Ohys-Raws] Nil Admirari no Tenbin Teito Genwaku Kitan - 01 (MX 1280x720 x264 AAC) mp4
photoshop

Скачать через торрент [MULT] Миньоны Minions бесплатно русская версия torrent активатор

Статистика раздачи
Размер:  1.23 GB   |    Зарегистрирован:  2 года 4 месяца   |    .torrent скачан:  53 раза   |   
Раздают:  1  
   
загрузка...
 
Автор Сообщение

Galfimbul

avatar Galfimbul



Миньоны / Minions
«Ой, всё»
Год выпуска: 2015
Страна: США
Жанр: мультфильм, комедия, семейный
Продолжительность: 01:30:58
Перевод №1: [Русский] Профессиональный (полное дублирование) BD CEE
Перевод №2: [Украинский] Профессиональный (полное дублирование) BD CEE
Cубтитры: нет
Режиссеры: Кайл Балда / Kyle Balda, Пьер Коффан / Pierre Coffin
Роли озвучивали: Сандра Буллок, Джон Хэмм, Майкл Китон, Эллисон Дженни, Стив Куган, Дженнифер Сондерс, Джеффри Раш, Стив Карелл, Пьер Соффин, Кэти Миксон и другие .
Роли дублировали: Алена Фалалеева, Сергей Смирнов, Игорь Старосельцев, Алёна Ивченко, Олег Форостенко, Алексей Колган, Ирина Маликова и другие .
Описание: Миньоны живут на планете гораздо дольше нас. У них одна навязчивая идея — служить самой Гадкой личности из имеющихся в наличии. Динозавры, фараоны, Дракула, Наполеон — все они оказались недолговечны. И тогда миньоны рванули в Нью-Йорк. Их ждут деньги, власть, роковая суперзлодейка Скарлет Оверкилл и, конечно же, вкуснейшая «банана»! Во всяком случае, так им кажется..
Релиз группы
Качество:HDRip / рип с BDRip 1080p Формат: MP4
Видео кодек: H.264 Аудио кодек: AAC Видео: 960x518 AR: 1.85 1667 kbps 23.976 fps
Аудио №1: [Русский] 2ch 48 kHz 128 kbps BD CEE
Аудио №2: [Украинский] 2ch 48 kHz 128 kbps BD CEE

Соло, которое играет Стюарт на новой электрогитаре в конце мультфильма — это композиция Эдварда Ван Халена «Eruption».
Во время сцены со сказкой на ночь на фоне играет произведение Сергея Прокофьева «Петя и волк».
Режиссер Пьер Коффан озвучил всех 899 миньонов.
Это первый фильм, в котором Сандра Буллок изображает злодейку.
Мировые сборы «Миньонов» превысили один миллиард долларов. Таким образом, Universal стала первой в истории студией, у которой сразу три фильма за один год покорили эту отметку. Другие два фильма — это «Форсаж 7» (2015) и «Мир Юрского периода» (2015).
Корону Британской империи, которую носит Боб во время сцены «коронации», можно также увидеть и в фильме «Гадкий я» (2010), когда все миньоны предлагают сокровища, чтобы помочь Грю осуществить кражу Луны.


События фильма разворачиваются в 1968 году и в сцене, где миньоны пытаются попасть в Лондонский Тауэр, можно заметить, что в Англии уже используют десятичную денежную систему, хотя она была принята лишь в 1971 году.
В фильме можно заметить красный пожарный гидрант в американском стиле. Таких гидрантов не было в Великобритании.


avs [info]: 960x518p 1:1 @ 2997/125 fps (cfr)
x264 [info]: using SAR=1/1
x264 [info]: using cpu capabilities: MMX2 SSE2Fast SSSE3 SSE4.2 LZCNT
x264 [info]: profile High, level 4.1

x264 [info]: frame I:1098 Avg QP:16.37 size: 81483
x264 [info]: frame P:32403 Avg QP:20.60 size: 18154
x264 [info]: frame B:97360 Avg QP:24.15 size: 4721
x264 [info]: consecutive B-frames: 3.3% 5.6% 10.1% 28.2% 13.9% 33.9% 3.2% 1.8%
x264 [info]: mb I I16..4: 10.1% 58.4% 31.5%
x264 [info]: mb P I16..4: 2.4% 11.9% 2.2% P16..4: 32.6% 28.0% 9.2% 0.0% 0.0% skip:13.8%
x264 [info]: mb B I16..4: 0.3% 2.0% 0.3% B16..8: 24.5% 10.9% 2.1% direct: 2.4% skip:57.6% L0:41.2% L1:44.2% BI:14.6%
x264 [info]: 8x8 transform intra:71.8% inter:65.9%
x264 [info]: direct mvs spatial:93.7% temporal:6.3%
x264 [info]: coded y,uvDC,uvAC intra: 74.3% 78.2% 49.1% inter: 13.7% 13.8% 6.5%
x264 [info]: i16 v,h,dc,p: 13% 14% 5% 69%
x264 [info]: i8 v,h,dc,ddl,ddr,vr,hd,vl,hu: 14% 13% 5% 8% 12% 12% 13% 11% 13%
x264 [info]: i4 v,h,dc,ddl,ddr,vr,hd,vl,hu: 17% 14% 6% 7% 13% 11% 12% 8% 11%
x264 [info]: i8c dc,h,v,p: 30% 30% 20% 20%
x264 [info]: Weighted P-Frames: Y:4.5% UV:2.5%
x264 [info]: ref P L0: 50.7% 10.8% 16.4% 6.7% 5.5% 4.1% 3.3% 2.2% 0.4% 0.0%
x264 [info]: ref B L0: 75.8% 10.1% 5.9% 3.2% 3.0% 1.3% 0.6%
x264 [info]: ref B L1: 93.3% 6.7%
x264 [info]: kb/s:1667.09

x264 [total]: encoded 130861 frames, 7.01 fps, 1667.09 kb/s
GeneralComplete name : D:\Torrents\Minions.2015.HDRip.x264.960x.rip by Frost O.S.mp4Format : MPEG-4Format profile : Base MediaCodec ID : isomFile size : 1.23 GiBDuration : 1h 30mnOverall bit rate mode : VariableOverall bit rate : 1 934 KbpsMovie name : Minions 2015 HDRip x264 960x rip by Frost O SContentType : Short FilmEncoded date : UTC 2015-12-04 14:08:02Tagged date : UTC 2015-12-04 14:09:41Writing application : MkvToMp4 version: 0.224 (x64)

VideoID : 1Format : AVCFormat/Info : Advanced Video CodecFormat profile : [email protected] settings, CABAC : YesFormat settings, ReFrames : 8 framesCodec ID : avc1Codec ID/Info : Advanced Video CodingDuration : 1h 30mnBit rate : 1 667 KbpsMaximum bit rate : 14.1 MbpsWidth : 960 pixelsHeight : 518 pixelsDisplay aspect ratio : 1.85:1Frame rate mode : ConstantFrame rate : 23.976 fpsColor space : YUVChroma subsampling : 4:2:0Bit depth : 8 bitsScan type : ProgressiveBits/(Pixel*Frame) : 0.140Stream size : 1.06 GiB (86%)Writing library : x264 core 130 r2273 b3065e6Encoding settings : cabac=1 / ref=8 / deblock=1:-3:-3 / analyse=0x3:0x113 / me=umh / subme=11 / psy=1 / psy_rd=0.50:0.00 / mixed_ref=1 / me_range=32 / chroma_me=1 / trellis=2 / 8x8dct=1 / cqm=0 / deadzone=21,11 / fast_pskip=0 / chroma_qp_offset=-2 / threads=3 / lookahead_threads=1 / sliced_threads=0 / nr=0 / decimate=0 / interlaced=0 / bluray_compat=0 / constrained_intra=0 / bframes=7 / b_pyramid=2 / b_adapt=2 / b_bias=0 / direct=3 / weightb=1 / open_gop=0 / weightp=2 / keyint=250 / keyint_min=23 / scenecut=40 / intra_refresh=0 / rc_lookahead=40 / rc=2pass / mbtree=1 / bitrate=1667 / ratetol=1.0 / qcomp=0.60 / qpmin=0 / qpmax=69 / qpstep=4 / cplxblur=20.0 / qblur=0.5 / ip_ratio=1.40 / aq=1:0.90Language : EnglishEncoded date : UTC 2015-12-04 14:08:02Tagged date : UTC 2015-12-04 14:08:37Color range : LimitedColor primaries : BT.709Transfer characteristics : BT.709Matrix coefficients : BT.709

Audio #1ID : 2Format : AACFormat/Info : Advanced Audio CodecFormat profile : LCCodec ID : 40Duration : 1h 30mnBit rate mode : VariableBit rate : 128 KbpsMaximum bit rate : 135 KbpsChannel(s) : 2 channelsChannel positions : Front: L RSampling rate : 48.0 KHzCompression mode : LossyStream size : 83.3 MiB (7%)Title : _BD CEE_ / _BD CEE_Language : RussianEncoded date : UTC 2015-12-04 14:08:20Tagged date : UTC 2015-12-04 14:08:37

Audio #2ID : 3Format : AACFormat/Info : Advanced Audio CodecFormat profile : LCCodec ID : 40Duration : 1h 30mnBit rate mode : VariableBit rate : 128 KbpsMaximum bit rate : 135 KbpsChannel(s) : 2 channelsChannel positions : Front: L RSampling rate : 48.0 KHzCompression mode : LossyStream size : 83.3 MiB (7%)Title : _BD CEE_ / _BD CEE_Language : UkrainianEncoded date : UTC 2015-12-04 14:08:31Tagged date : UTC 2015-12-04 14:08:37


Трекер:  [ 05-Дек-2015 15:00 ]

  

Скачать .torrent

Размер .torrent файла 12 KB


Размер: 1.23 GB
Хэш (hash) релиза: 8bc8b0b0c0f3207f592e436d46849c2723dfd633

Еще никто не оставлял запись к записи скачать торрент [MULT] Миньоны Minions . Будь первым!

!Обратная связь