Удивительный мир Гамбола | Amar otra vez | The Stars Are Shining

Скачать через торрент [VIDEO] Зигзаг удачи бесплатно русская версия torrent активатор

Статистика раздачи
Размер:  716 MB   |    Зарегистрирован:  2 года 7 месяцев   |    .torrent скачан:  19 раз   |   
Раздают:  1  
   
загрузка...
 
Автор Сообщение

Galfimbul

avatar Galfimbul


Зигзаг удачи

Год выпуска: 1968
Страна: СCCP
Жанр: комедия
Продолжительность: 01:33:14
Перевод: Не требуется
Cубтитры: нет
Режиссер: Эльдар Рязанов
В ролях: Евгений Леонов, Ирина Скобцева, Валентина Теличкина, Евгений Евстигнеев, Валентина Талызина, Алексей Грибов, Готлиб Ронинсон, Георгий Бурков, Светлана Старикова, Борис Суслов, Антонина Дмитриева, Нина Сазонова, Феликс Яворский, Владимир Гуляев, Екатерина Савинова, Виктор Шульгин, Зоя Исаева, Нина Агапова, Виталий Комиссаров, Виктор Колпаков, Герман Качин, Роман Тындык, Екатерина Мазурова, Вера Бурлакова, Виктор Маркин, Дмитрий Орловский, Владислав Цыганков, Николай Романов, ларина Фролова-Воронцова, Зиновий Гердт и другие .
Описание: Молодой фотограф Володя Орешников выигрывает 10000 рублей. Товарищи по работе, не долго думая, организуют общественный суд. Дело в том, что 20 рублей на покупку облигации Орешников тайком взял из кассы взаимопомощи, председателем которой он был… В итоге все насмерть перессорились. Только празднование Нового года примирило сослуживцев .
Релиз группы
Качество: SATRip / [url=...4347040]рип DVB[/url] Формат: MP4 Видео кодек: H.264 Аудио кодек: AAC
Видео: 596x360 AR:5/3 1080 kbps 25 fps Аудио: [Русский] 2ch 48 kHz 128 kbps
avs [info]: 596x360p 1:1 @ 25/1 fps (cfr)
x264 [info]: using SAR=1/1
x264 [info]: using cpu capabilities: MMX2 SSE2Fast SSSE3 SSE4.2 LZCNT
x264 [info]: profile High, level 4.1

x264 [info]: frame I:616 Avg QP:20.22 size: 23775
x264 [info]: frame P:25419 Avg QP:23.08 size: 10044
x264 [info]: frame B:97461 Avg QP:24.89 size: 4073
x264 [info]: consecutive B-frames: 0.8% 1.5% 6.3% 25.2% 17.6% 34.2% 7.5% 3.5% 1.6% 1.0% 0.7%
x264 [info]: mb I I16..4: 5.1% 78.0% 16.9%
x264 [info]: mb P I16..4: 0.6% 8.4% 1.4% P16..4: 37.7% 38.1% 12.0% 1.0% 0.1% skip: 0.7%
x264 [info]: mb B I16..4: 0.1% 1.3% 0.2% B16..8: 37.0% 21.7% 3.2% direct: 9.0% skip:27.5% L0:43.8% L1:40.3% BI:15.9%
x264 [info]: 8x8 transform intra:79.7% inter:64.7%
x264 [info]: direct mvs spatial:98.6% temporal:1.4%
x264 [info]: coded y,uvDC,uvAC intra: 86.9% 31.9% 1.4% inter: 35.8% 18.7% 0.2%
x264 [info]: i16 v,h,dc,p: 35% 18% 3% 44%
x264 [info]: i8 v,h,dc,ddl,ddr,vr,hd,vl,hu: 14% 9% 4% 9% 14% 13% 14% 11% 14%
x264 [info]: i4 v,h,dc,ddl,ddr,vr,hd,vl,hu: 13% 27% 3% 6% 10% 10% 12% 7% 12%
x264 [info]: i8c dc,h,v,p: 35% 44% 17% 5%
x264 [info]: Weighted P-Frames: Y:37.7% UV:2.5%
x264 [info]: ref P L0: 39.4% 13.6% 14.8% 8.0% 5.7% 4.7% 4.0% 2.4% 2.2% 2.1% 2.1% 1.0% 0.1%
x264 [info]: ref B L0: 67.4% 13.6% 6.2% 3.5% 2.5% 2.3% 1.8% 1.3% 0.7% 0.4%
x264 [info]: ref B L1: 92.6% 7.4%
x264 [info]: kb/s:1079.98

x264 [total]: encoded 123496 frames, 9.70 fps, 1079.98 kb/s
GeneralComplete name : D:\Torrents\Зигзаг удачи (1968).SATRip.x264.640x.rip by Frost O.S.mp4Format : MPEG-4Format profile : Base MediaCodec ID : isomFile size : 716 MiBDuration : 1h 22mnOverall bit rate mode : VariableOverall bit rate : 1 216 KbpsMovie name : Зигзаг удачи (1968) SATRip x264 640x rip by Frost O SContentType : Short FilmEncoded date : UTC 2015-12-02 10:57:51Tagged date : UTC 2015-12-02 10:58:22Writing application : MkvToMp4 version: 0.224 (x64)Comment : rip by Frost O.S

VideoID : 1Format : AVCFormat/Info : Advanced Video CodecFormat profile : [email protected] settings, CABAC : YesFormat settings, ReFrames : 11 framesCodec ID : avc1Codec ID/Info : Advanced Video CodingDuration : 1h 22mnBit rate : 1 080 KbpsMaximum bit rate : 3 162 KbpsWidth : 596 pixelsHeight : 360 pixelsDisplay aspect ratio : 5:3Frame rate mode : ConstantFrame rate : 25.000 fpsColor space : YUVChroma subsampling : 4:2:0Bit depth : 8 bitsScan type : ProgressiveBits/(Pixel*Frame) : 0.201Stream size : 636 MiB (89%)Writing library : x264 core 130 r2273 b3065e6Encoding settings : cabac=1 / ref=11 / deblock=1:-1:-1 / analyse=0x3:0x133 / me=umh / subme=11 / psy=1 / psy_rd=0.90:0.00 / mixed_ref=1 / me_range=48 / chroma_me=1 / trellis=2 / 8x8dct=1 / cqm=0 / deadzone=21,11 / fast_pskip=0 / chroma_qp_offset=-2 / threads=3 / lookahead_threads=1 / sliced_threads=0 / nr=0 / decimate=0 / interlaced=0 / bluray_compat=0 / constrained_intra=0 / bframes=10 / b_pyramid=2 / b_adapt=2 / b_bias=0 / direct=3 / weightb=1 / open_gop=0 / weightp=2 / keyint=250 / keyint_min=25 / scenecut=40 / intra_refresh=0 / rc_lookahead=40 / rc=2pass / mbtree=1 / bitrate=1080 / ratetol=1.0 / qcomp=0.80 / qpmin=0 / qpmax=69 / qpstep=4 / cplxblur=20.0 / qblur=0.5 / ip_ratio=1.40 / aq=1:0.70Language : EnglishEncoded date : UTC 2015-12-02 10:57:51Tagged date : UTC 2015-12-02 10:58:02Color range : LimitedColor primaries : BT.601 PALTransfer characteristics : BT.470 System B, BT.470 System GMatrix coefficients : BT.601

AudioID : 2Format : AACFormat/Info : Advanced Audio CodecFormat profile : LCCodec ID : 40Duration : 1h 22mnBit rate mode : VariableBit rate : 128 KbpsMaximum bit rate : 132 KbpsChannel(s) : 2 channelsChannel positions : Front: L RSampling rate : 48.0 KHzCompression mode : LossyStream size : 75.4 MiB (11%)Language : RussianEncoded date : UTC 2015-12-02 10:58:01Tagged date : UTC 2015-12-02 10:58:02


Трекер:  [ 02-Дек-2015 15:30 ]

  

Скачать .torrent

Размер .torrent файла 14 KB


Размер: 716 MB
Хэш (hash) релиза: bbd39c404a45b58555e2c59a498c96d1df20efab

Еще никто не оставлял запись к записи скачать торрент [VIDEO] Зигзаг удачи . Будь первым!

!Обратная связь