Stephen Kings Bag of Bones 2011 HDTV XViD KiNGDOM | Todo el Dinero del Mundo BluRay 1080p | Pokaż wszystko

Скачать через торрент музыку Играй, Эуфониум! Hibike! Euphonium бесплатно без регистрации torrent

Статистика раздачи
Размер:  695 MB   |    Зарегистрирован:  2 года 7 месяцев   |    .torrent скачан:  27 раз   |   
Раздают:  1  
   
загрузка...
 
Автор Сообщение

Galfimbul

avatar Galfimbul


Sound! Euphonium Original Soundtrack

お も い で ミ ュ ー ジ ッ ク

Название альбома: Sound! Euphonium Original Soundtrack Omoide Music
Носитель: 2 CD
Год выпуска: 2015 г.
Страна: Япония
Издатель (лейбл): Lantis (distributed by Bandai Visual)
Номер по каталогу: LACA-9410~11
Аудио кодек: FLAC (*.flac)
Тип рипа: tracks+.cue
Битрейт аудио: lossless
Продолжительность: 1:13:33 + 1:08:04
Наличие сканов в содержимом раздачи: да



Треклист :
CD - 1

Tracks - 1-29, 32-38 Composed & Arranged by Akito Matsuda

01 Hajimari no Senritsu (3:03)
02 Oboroge na Genzai (2:21)
03 Shintenchi (2:02)
04 Junshin (2:14)
05 Seishun no Ruten (2:23)
06 Sonna ni Tanoshii no? (2:11)
07 Hazumu Omoi (2:07)
08 Iroasenu Kako (2:01)
09 Chiisana Fuan (2:20)
10 Junjou (2:26)
11 Ippozutsu Mae e (2:12)
12 Toushindai no Hibi (2:06)
13 Taainai Nayamigoto (2:10)
14 Kokoro Odoru Mirai (2:34)
15 Agata Matsuri (2:59)
16 Seishun no Itami (2:12)
17 Unmei no Nagare (2:12)
18 Tsutaetai Omoi (3:03)
19 Ishiki no Houga (2:29)
20 Fushin (1:52)
21 Kiretsu (2:08)
22 Haritsumeta Ito no you ni (2:10)
23 Shoutotsu (2:02)
24 Seishun no Kunou (2:07)
25 Tsuisou (2:30)
26 Kasuka na Hikari (2:00)
27 Ichizu na Hitomi (2:28)
28 Kasanaru Kokoro (2:11)
29 Kyoraisuru Omoi (2:22)
30 ZAQ (Arranged by Kyo Takada) Tutti! (TV Size) (1:32) vocal: Tomoyo Kurosawa, Ayaka Asai, Moe Toyota, Chika Anzai
31 Yusuke Kato & TRUE DREAM SOLISTER (TV Size) (1:53)
32 Trumpet Tameshifuki (0:12)
33 Kokou no Trumpet (0:20)
34 Funki no Trumpet (0:10)
35 Yukai na Tuba (0:19)
36 Zoushokushita Tuba (0:15)
37 Mikazuki no Mai Trumpet Solo Part Audition (Kaori) (0:52)
38 Mikazuki no Mai Trumpet Solo Part Audition (Reina) (1:06)

CD - 2

01 Akito Matsuda Starting The Project (Big Band Ver.) (1:05)
02 Shunsuke Kikuchi (Arranged by Akito Matsuda) Abarenbou Shougun No Theme (Shidoumae Ver.) (1:13)
03 Shunsuke Kikuchi (Arranged by Akito Matsuda) Abarenbou Shougun No Theme (Shidougo Ver.) (1:14)
04 Jacques Offenbach Jigoku No Orphée (9:14)
05 Antonín Leopold Dvořák Koukyoukyoku Dai-9-ban Ho-tanchou Sakuhin 95 "Shinsekai yori" Dai-2 Gakushou (1:15)
06 J.M. Fulton (Arranged by Satomi Kojima) Kaiheitai (Shidoumae Ver.) (0:25)
07 J.M. Fulton (Arranged by Satomi Kojima) Kaiheitai (Shidougo Ver.) (2:00)
08 John Philip Sousa The Fairest Of The Fair March (3:42)
09 Luigi Denza (Arranged by Alfred Reed) Funiculi Funicula (2:25)
10 Yukihiro Takahashi (Arranged by Naoya Wada) Rydeen (3:58)
11 French Folk Song (Arranged by Akito Matsuda) Kirakiraboshi (0:45)
12 Hanako Oku (Arranged by Akito Matsuda) Ai Wo Mitsuketa Basho (1:47)
13 R. Korsakov (Arranged by Toshio Mashima) Koukyou Kumikyoku "Scheherazade" Yori -highlights- (10:34)
14 Naoki Tasaka Provence No Kaze (3:30)
15 Namie Horikawa (Akito Matsuda) Mikazuki No Mai (Kaori Trumpet Solo Ver.) (6:44)
16 Namie Horikawa (Akito Matsuda) Mikazuki No Mai (Reina Trumpet Solo Ver.) (6:49)
17 Yusuke Kato (Arranged by Akito Matsuda) Dream Solister (Wind Orchestra Ver.) (5:08)
18 ZAQ (Arranged by Akito Matsuda) Tutti! (Wind Orchestra Ver.) (5:02)
19 Akito Matsuda Starting The Project (Wind Orchestra Ver.) (1:13)
Кредитс :
CD - 1

tracks - 1-29, 32-3
All Music Composed & Arranged by Akito Matsuda
Piano: Keita Egusa
Guitar: Itaru Watanabe
Strings: Koichiro Muroya Strings
Programming: Akito Matsuda

tracks - 33,34,38
Trumpet: Jin Ueda

tracks - 35,36
Tuba: Ryosuke Kashiwada

CD - 2

track - 1
Drums: Yuichi Togashiki
Wood Bass: Shigeki Ippon
Alto Saxophone: Masato Honda, Masato Honma
Tenor Saxophone: Kei Suzuki
Baritone Saxophone: Takuo Yamamoto
Trumpet: Shiro Sasaki, Masahiko Sugasaka, Sho Okumura, Yusuke Nakano
Trombone: Yoichi Murata, Azusa Tojo, Koichi Nonoshita
Euphonium: Shoichiro Hokazono
Tuba: Kiyoshi Sato
Timpani: Tamao Fujii

track - 4
Harp: Yuko Taguchi

track - 5
Trumpet: Misato Suda

track - 11
Tuba: 谷口順音
Euphonium: 矢口将大
St.bass: 山田彩番

track - 12
Euphonium: Hiroyuki Ennouji
Trumpet: Jin Ueda

tracks - 15-16
Trumpet Solo: 冨岡愛彩美 (15), Jin Ueda (16)

tracks - 2-4, 6-10, 13-19
All Instruments: Freshmen Wind Ensemble
Exact Audio Copy V1.1 from 23. June 2015

EAC extraction logfile from 14. August 2015, 1:48

松田彬人 / 響け!ユーフォニアム オリジナルサウンドトラック「おもいでミュージック」

Used drive : HL-DT-STBD-RE WH12LS30 Adapter: 1 ID: 0

Read mode : SecureUtilize accurate stream : YesDefeat audio cache : YesMake use of C2 pointers : No

Read offset correction : 667Overread into Lead-In and Lead-Out : NoFill up missing offset samples with silence : YesDelete leading and trailing silent blocks : NoNull samples used in CRC calculations : YesUsed interface : Native Win32 interface for Win NT & 2000Gap handling : Appended to previous track

Used output format : User Defined EncoderSelected bitrate : 1024 kBit/sQuality : HighAdd ID3 tag : NoCommand line compressor : C:\Program Files (x86)\FLAC\flac.exeAdditional command line options : -8 -V -T "ARTIST=%artist%" -T "TITLE=%title%" -T "ALBUM=%albumtitle%" -T "DATE=%year%" -T "TRACKNUMBER=%tracknr%" -T "GENRE=%genre%" -T "PERFORMER=%albuminterpret%" -T "COMPOSER=%composer%" %haslyrics%--tag-from-file=LYRICS="%lyricsfile%"%haslyrics% -T "ALBUMARTIST=%albumartist%" -T "DISCNUMBER=%cdnumber%" -T "TOTALDISCS=%totalcds%" -T "TOTALTRACKS=%numtracks%" -T "COMMENT=%comment%" %source% -o %dest%

TOC of the extracted CD

Track | Start | Length | Start sector | End sector --------------------------------------------------------- 1 | 0:00.00 | 3:03.36 | 0 | 13760 2 | 3:03.36 | 2:20.43 | 13761 | 24303 3 | 5:24.04 | 2:02.19 | 24304 | 33472 4 | 7:26.23 | 2:14.14 | 33473 | 43536 5 | 9:40.37 | 2:23.09 | 43537 | 54270 6 | 12:03.46 | 2:10.47 | 54271 | 64067 7 | 14:14.18 | 2:06.70 | 64068 | 73587 8 | 16:21.13 | 2:00.47 | 73588 | 82634 9 | 18:21.60 | 2:19.64 | 82635 | 93123 10 | 20:41.49 | 2:26.35 | 93124 | 104108 11 | 23:08.09 | 2:12.34 | 104109 | 114042 12 | 25:20.43 | 2:05.47 | 114043 | 123464 13 | 27:26.15 | 2:09.46 | 123465 | 133185 14 | 29:35.61 | 2:33.46 | 133186 | 144706 15 | 32:09.32 | 2:58.60 | 144707 | 158116 16 | 35:08.17 | 2:11.49 | 158117 | 167990 17 | 37:19.66 | 2:12.01 | 167991 | 177891 18 | 39:31.67 | 3:03.32 | 177892 | 191648 19 | 42:35.24 | 2:29.13 | 191649 | 202836 20 | 45:04.37 | 1:51.52 | 202837 | 211213 21 | 46:56.14 | 2:08.18 | 211214 | 220831 22 | 49:04.32 | 2:09.58 | 220832 | 230564 23 | 51:14.15 | 2:02.02 | 230565 | 239716 24 | 53:16.17 | 2:06.71 | 239717 | 249237 25 | 55:23.13 | 2:29.49 | 249238 | 260461 26 | 57:52.62 | 2:00.20 | 260462 | 269481 27 | 59:53.07 | 2:27.44 | 269482 | 280550 28 | 62:20.51 | 2:11.10 | 280551 | 290385 29 | 64:31.61 | 2:21.62 | 290386 | 301022 30 | 66:53.48 | 1:32.36 | 301023 | 307958 31 | 68:26.09 | 1:52.66 | 307959 | 316424 32 | 70:19.00 | 0:12.28 | 316425 | 317352 33 | 70:31.28 | 0:20.09 | 317353 | 318861 34 | 70:51.37 | 0:10.20 | 318862 | 319631 35 | 71:01.57 | 0:18.43 | 319632 | 321024 36 | 71:20.25 | 0:15.11 | 321025 | 322160 37 | 71:35.36 | 0:51.55 | 322161 | 326040 38 | 72:27.16 | 1:05.61 | 326041 | 330976

Track 1

Filename M:\Incomplete\松田彬人 - 『響け! ユーフォニアム』オリジナルサウンドトラック「おもいでミュージック」 (2015) [FLAC] {LACA-94101}\Disc 1\01 - はじまりの旋律.wav

Pre-gap length 0:00:02.00

Peak level 70.9 % Extraction speed 1.2 X Track quality 100.0 % Test CRC CF1A525B Copy CRC CF1A525B Accurately ripped (confidence 3) [EEBCF058] (AR v2) Copy OK

Track 2

Filename M:\Incomplete\松田彬人 - 『響け! ユーフォニアム』オリジナルサウンドトラック「おもいでミュージック」 (2015) [FLAC] {LACA-94101}\Disc 1\02 - 朧げな現在.wav

Pre-gap length 0:00:02.96

Peak level 51.5 % Extraction speed 1.2 X Track quality 100.0 % Test CRC 2893A4E0 Copy CRC 2893A4E0 Accurately ripped (confidence 3) [7CE1874E] (AR v2) Copy OK

Track 3

Filename M:\Incomplete\松田彬人 - 『響け! ユーフォニアム』オリジナルサウンドトラック「おもいでミュージック」 (2015) [FLAC] {LACA-94101}\Disc 1\03 - 新天地.wav

Pre-gap length 0:00:01.42

Peak level 62.1 % Extraction speed 1.2 X Track quality 100.0 % Test CRC 46D76AB3 Copy CRC 46D76AB3 Accurately ripped (confidence 3) [EE6A03AE] (AR v2) Copy OK

Track 4

Filename M:\Incomplete\松田彬人 - 『響け! ユーフォニアム』オリジナルサウンドトラック「おもいでミュージック」 (2015) [FLAC] {LACA-94101}\Disc 1\04 - 純心.wav

Pre-gap length 0:00:02.44

Peak level 70.8 % Extraction speed 1.3 X Track quality 100.0 % Test CRC 70FF8D3C Copy CRC 70FF8D3C Accurately ripped (confidence 3) [CF1AE51D] (AR v2) Copy OK

Track 5

Filename M:\Incomplete\松田彬人 - 『響け! ユーフォニアム』オリジナルサウンドトラック「おもいでミュージック」 (2015) [FLAC] {LACA-94101}\Disc 1\05 - 青春の流転.wav

Pre-gap length 0:00:02.45

Peak level 81.6 % Extraction speed 1.3 X Track quality 100.0 % Test CRC 35D2EBEC Copy CRC 35D2EBEC Accurately ripped (confidence 3) [11C3D729] (AR v2) Copy OK

Track 6

Filename M:\Incomplete\松田彬人 - 『響け! ユーフォニアム』オリジナルサウンドトラック「おもいでミュージック」 (2015) [FLAC] {LACA-94101}\Disc 1\06 - そんなに楽しいの.wav

Pre-gap length 0:00:01.44

Peak level 69.4 % Extraction speed 1.4 X Track quality 100.0 % Test CRC 31F544FF Copy CRC 31F544FF Accurately ripped (confidence 3) [4B15F821] (AR v2) Copy OK

Track 7

Filename M:\Incomplete\松田彬人 - 『響け! ユーフォニアム』オリジナルサウンドトラック「おもいでミュージック」 (2015) [FLAC] {LACA-94101}\Disc 1\07 - 弾む想い.wav

Pre-gap length 0:00:02.45

Peak level 86.0 % Extraction speed 1.4 X Track quality 100.0 % Test CRC B763F7D1 Copy CRC B763F7D1 Accurately ripped (confidence 3) [244B494E] (AR v2) Copy OK

Track 8

Filename M:\Incomplete\松田彬人 - 『響け! ユーフォニアム』オリジナルサウンドトラック「おもいでミュージック」 (2015) [FLAC] {LACA-94101}\Disc 1\08 - 色褪せぬ過去.wav

Pre-gap length 0:00:02.94

Peak level 55.7 % Extraction speed 1.4 X Track quality 100.0 % Test CRC D6A90481 Copy CRC D6A90481 Accurately ripped (confidence 3) [37A39AF3] (AR v2) Copy OK

Track 9

Filename M:\Incomplete\松田彬人 - 『響け! ユーフォニアム』オリジナルサウンドトラック「おもいでミュージック」 (2015) [FLAC] {LACA-94101}\Disc 1\09 - 小さな不安.wav

Pre-gap length 0:00:01.93

Peak level 79.7 % Extraction speed 1.5 X Track quality 100.0 % Test CRC 04496279 Copy CRC 04496279 Accurately ripped (confidence 3) [81E69040] (AR v2) Copy OK

Track 10

Filename M:\Incomplete\松田彬人 - 『響け! ユーフォニアム』オリジナルサウンドトラック「おもいでミュージック」 (2015) [FLAC] {LACA-94101}\Disc 1\10 - 純情.wav

Peak level 54.4 % Extraction speed 1.6 X Track quality 100.0 % Test CRC F49B1A39 Copy CRC F49B1A39 Accurately ripped (confidence 3) [70C8434A] (AR v2) Copy OK

Track 11

Filename M:\Incomplete\松田彬人 - 『響け! ユーフォニアム』オリジナルサウンドトラック「おもいでミュージック」 (2015) [FLAC] {LACA-94101}\Disc 1\11 - 一歩ずつ前へ.wav

Pre-gap length 0:00:03.73

Peak level 38.8 % Extraction speed 1.3 X Track quality 99.9 % Test CRC 5E44307C Copy CRC 5E44307C Accurately ripped (confidence 3) [60A6E4D4] (AR v2) Copy OK

Track 12

Filename M:\Incomplete\松田彬人 - 『響け! ユーフォニアム』オリジナルサウンドトラック「おもいでミュージック」 (2015) [FLAC] {LACA-94101}\Disc 1\12 - 等身大の日々.wav

Pre-gap length 0:00:03.78

Peak level 73.9 % Extraction speed 1.7 X Track quality 100.0 % Test CRC F889B4CC Copy CRC F889B4CC Accurately ripped (confidence 3) [4578F820] (AR v2) Copy OK

Track 13

Filename M:\Incomplete\松田彬人 - 『響け! ユーフォニアム』オリジナルサウンドトラック「おもいでミュージック」 (2015) [FLAC] {LACA-94101}\Disc 1\13 - 他愛ない悩み事.wav

Pre-gap length 0:00:02.44

Peak level 94.9 % Extraction speed 1.7 X Track quality 100.0 % Test CRC 4BC1A6CE Copy CRC 4BC1A6CE Accurately ripped (confidence 3) [9350F2EC] (AR v2) Copy OK

Track 14

Filename M:\Incomplete\松田彬人 - 『響け! ユーフォニアム』オリジナルサウンドトラック「おもいでミュージック」 (2015) [FLAC] {LACA-94101}\Disc 1\14 - 心躍る未来.wav

Pre-gap length 0:00:03.46

Peak level 79.5 % Extraction speed 1.8 X Track quality 100.0 % Test CRC A505D3AE Copy CRC A505D3AE Accurately ripped (confidence 3) [E2CBBB28] (AR v2) Copy OK

Track 15

Filename M:\Incomplete\松田彬人 - 『響け! ユーフォニアム』オリジナルサウンドトラック「おもいでミュージック」 (2015) [FLAC] {LACA-94101}\Disc 1\15 - あがた祭り.wav

Pre-gap length 0:00:03.46

Peak level 52.9 % Extraction speed 1.9 X Track quality 100.0 % Test CRC 68077294 Copy CRC 68077294 Accurately ripped (confidence 3) [BBD22D3F] (AR v2) Copy OK

Track 16

Filename M:\Incomplete\松田彬人 - 『響け! ユーフォニアム』オリジナルサウンドトラック「おもいでミュージック」 (2015) [FLAC] {LACA-94101}\Disc 1\16 - 青春の痛み.wav

Pre-gap length 0:00:02.45

Peak level 53.7 % Extraction speed 1.9 X Track quality 100.0 % Test CRC DAC1369E Copy CRC DAC1369E Accurately ripped (confidence 3) [0CA61D78] (AR v2) Copy OK

Track 17

Filename M:\Incomplete\松田彬人 - 『響け! ユーフォニアム』オリジナルサウンドトラック「おもいでミュージック」 (2015) [FLAC] {LACA-94101}\Disc 1\17 - 運命の流れ.wav

Pre-gap length 0:00:03.97

Peak level 83.2 % Extraction speed 1.9 X Track quality 100.0 % Test CRC 1BE7FE68 Copy CRC 1BE7FE68 Accurately ripped (confidence 3) [AC37EA12] (AR v2) Copy OK

Track 18

Filename M:\Incomplete\松田彬人 - 『響け! ユーフォニアム』オリジナルサウンドトラック「おもいでミュージック」 (2015) [FLAC] {LACA-94101}\Disc 1\18 - 伝えたい想い.wav

Pre-gap length 0:00:02.45

Peak level 62.2 % Extraction speed 2.1 X Track quality 100.0 % Test CRC 03AF530D Copy CRC 03AF530D Accurately ripped (confidence 3) [9C22142A] (AR v2) Copy OK

Track 19

Filename M:\Incomplete\松田彬人 - 『響け! ユーフォニアム』オリジナルサウンドトラック「おもいでミュージック」 (2015) [FLAC] {LACA-94101}\Disc 1\19 - 意識の萌芽.wav

Pre-gap length 0:00:02.44

Peak level 85.3 % Extraction speed 2.0 X Track quality 100.0 % Test CRC 7471A561 Copy CRC 7471A561 Accurately ripped (confidence 3) [C0D40E78] (AR v2) Copy OK

Track 20

Filename M:\Incomplete\松田彬人 - 『響け! ユーフォニアム』オリジナルサウンドトラック「おもいでミュージック」 (2015) [FLAC] {LACA-94101}\Disc 1\20 - 不信.wav

Pre-gap length 0:00:02.96

Peak level 50.0 % Extraction speed 1.9 X Track quality 100.0 % Test CRC 41442A15 Copy CRC 41442A15 Accurately ripped (confidence 3) [7B26E2F5] (AR v2) Copy OK

Track 21

Filename M:\Incomplete\松田彬人 - 『響け! ユーフォニアム』オリジナルサウンドトラック「おもいでミュージック」 (2015) [FLAC] {LACA-94101}\Disc 1\21 - 亀裂.wav

Pre-gap length 0:00:02.94

Peak level 98.8 % Extraction speed 2.0 X Track quality 100.0 % Test CRC D55FC024 Copy CRC D55FC024 Accurately ripped (confidence 3) [936FBB8A] (AR v2) Copy OK

Track 22

Filename M:\Incomplete\松田彬人 - 『響け! ユーフォニアム』オリジナルサウンドトラック「おもいでミュージック」 (2015) [FLAC] {LACA-94101}\Disc 1\22 - 張り詰めた糸のように.wav

Pre-gap length 0:00:02.94

Peak level 50.1 % Extraction speed 1.7 X Track quality 99.9 % Test CRC C44AF785 Copy CRC C44AF785 Accurately ripped (confidence 3) [1AF15097] (AR v2) Copy OK

Track 23

Filename M:\Incomplete\松田彬人 - 『響け! ユーフォニアム』オリジナルサウンドトラック「おもいでミュージック」 (2015) [FLAC] {LACA-94101}\Disc 1\23 - 衝突.wav

Pre-gap length 0:00:03.69

Peak level 54.4 % Extraction speed 2.1 X Track quality 100.0 % Test CRC CF654DE5 Copy CRC CF654DE5 Accurately ripped (confidence 3) [E7F3A4B7] (AR v2) Copy OK

Track 24

Filename M:\Incomplete\松田彬人 - 『響け! ユーフォニアム』オリジナルサウンドトラック「おもいでミュージック」 (2015) [FLAC] {LACA-94101}\Disc 1\24 - 青春の苦悩.wav

Pre-gap length 0:00:02.44

Peak level 51.5 % Extraction speed 2.1 X Track quality 100.0 % Test CRC 73D2DAEA Copy CRC 73D2DAEA Accurately ripped (confidence 3) [7D5CAFA2] (AR v2) Copy OK

Track 25

Filename M:\Incomplete\松田彬人 - 『響け! ユーフォニアム』オリジナルサウンドトラック「おもいでミュージック」 (2015) [FLAC] {LACA-94101}\Disc 1\25 - 追想.wav

Pre-gap length 0:00:03.85

Peak level 61.5 % Extraction speed 2.2 X Track quality 100.0 % Test CRC 1E3DC5FB Copy CRC 1E3DC5FB Accurately ripped (confidence 3) [5FE2CF52] (AR v2) Copy OK

Track 26

Filename M:\Incomplete\松田彬人 - 『響け! ユーフォニアム』オリジナルサウンドトラック「おもいでミュージック」 (2015) [FLAC] {LACA-94101}\Disc 1\26 - 微かな光.wav

Pre-gap length 0:00:03.85

Peak level 62.1 % Extraction speed 2.1 X Track quality 100.0 % Test CRC 99ABB1DE Copy CRC 99ABB1DE Accurately ripped (confidence 3) [F04EC7BC] (AR v2) Copy OK

Track 27

Filename M:\Incomplete\松田彬人 - 『響け! ユーフォニアム』オリジナルサウンドトラック「おもいでミュージック」 (2015) [FLAC] {LACA-94101}\Disc 1\27 - 一途な瞳.wav

Pre-gap length 0:00:02.44

Peak level 88.1 % Extraction speed 2.3 X Track quality 100.0 % Test CRC E76037B8 Copy CRC E76037B8 Accurately ripped (confidence 3) [E3B05459] (AR v2) Copy OK

Track 28

Filename M:\Incomplete\松田彬人 - 『響け! ユーフォニアム』オリジナルサウンドトラック「おもいでミュージック」 (2015) [FLAC] {LACA-94101}\Disc 1\28 - 重なる心.wav

Pre-gap length 0:00:02.44

Peak level 79.2 % Extraction speed 1.9 X Track quality 99.9 % Test CRC 9C2E53A4 Copy CRC 9C2E53A4 Accurately ripped (confidence 3) [F705F210] (AR v2) Copy OK

Track 29

Filename M:\Incomplete\松田彬人 - 『響け! ユーフォニアム』オリジナルサウンドトラック「おもいでミュージック」 (2015) [FLAC] {LACA-94101}\Disc 1\29 - 去来する想い.wav

Pre-gap length 0:00:03.22

Peak level 60.7 % Extraction speed 2.3 X Track quality 100.0 % Test CRC E64A1F73 Copy CRC E64A1F73 Accurately ripped (confidence 3) [EE9FFC6C] (AR v2) Copy OK

Track 30

Filename M:\Incomplete\松田彬人 - 『響け! ユーフォニアム』オリジナルサウンドトラック「おもいでミュージック」 (2015) [FLAC] {LACA-94101}\Disc 1\30 - トゥッティ! (TV Size) 黄前久美子(黒沢ともよ)・加藤葉月(朝井彩加)・川島緑輝(豊田萌絵)・高坂麗奈(安済知佳).wav

Pre-gap length 0:00:02.96

Peak level 98.8 % Extraction speed 2.1 X Track quality 100.0 % Test CRC F2DCC438 Copy CRC F2DCC438 Accurately ripped (confidence 3) [FE36D48D] (AR v2) Copy OK

Track 31

Filename M:\Incomplete\松田彬人 - 『響け! ユーフォニアム』オリジナルサウンドトラック「おもいでミュージック」 (2015) [FLAC] {LACA-94101}\Disc 1\31 - DREAM SOLISTER (TV Size) TRUE.wav

Pre-gap length 0:00:02.45

Peak level 98.8 % Extraction speed 1.8 X Track quality 99.9 % Test CRC AF91BAEF Copy CRC AF91BAEF Accurately ripped (confidence 3) [9D3CFC3B] (AR v2) Copy OK

Track 32

Filename M:\Incomplete\松田彬人 - 『響け! ユーフォニアム』オリジナルサウンドトラック「おもいでミュージック」 (2015) [FLAC] {LACA-94101}\Disc 1\32 - トランペット試し吹き.wav

Pre-gap length 0:00:04.98

Peak level 57.9 % Extraction speed 0.7 X Track quality 100.0 % Test CRC 98A40603 Copy CRC 98A40603 Accurately ripped (confidence 3) [F6223683] (AR v2) Copy OK

Track 33

Filename M:\Incomplete\松田彬人 - 『響け! ユーフォニアム』オリジナルサウンドトラック「おもいでミュージック」 (2015) [FLAC] {LACA-94101}\Disc 1\33 - 孤高のトランペット.wav

Pre-gap length 0:00:02.96

Peak level 35.4 % Extraction speed 1.1 X Track quality 100.0 % Test CRC A1C8E5B2 Copy CRC A1C8E5B2 Accurately ripped (confidence 3) [FFCD0819] (AR v2) Copy OK

Track 34

Filename M:\Incomplete\松田彬人 - 『響け! ユーフォニアム』オリジナルサウンドトラック「おもいでミュージック」 (2015) [FLAC] {LACA-94101}\Disc 1\34 - 奮起のトランペット.wav

Pre-gap length 0:00:01.44

Peak level 38.1 % Extraction speed 0.3 X Track quality 98.9 % Test CRC 08FB6877 Copy CRC 08FB6877 Accurately ripped (confidence 3) [80827CA1] (AR v2) Copy OK

Track 35

Filename M:\Incomplete\松田彬人 - 『響け! ユーフォニアム』オリジナルサウンドトラック「おもいでミュージック」 (2015) [FLAC] {LACA-94101}\Disc 1\35 - 愉快なチューバ.wav

Pre-gap length 0:00:02.45

Peak level 83.0 % Extraction speed 0.6 X Track quality 99.4 % Test CRC 5428C861 Copy CRC 5428C861 Accurately ripped (confidence 3) [49F4C54F] (AR v2) Copy OK

Track 36

Filename M:\Incomplete\松田彬人 - 『響け! ユーフォニアム』オリジナルサウンドトラック「おもいでミュージック」 (2015) [FLAC] {LACA-94101}\Disc 1\36 - 増殖したチューバ.wav

Pre-gap length 0:00:01.42

Peak level 96.1 % Extraction speed 0.8 X Track quality 100.0 % Test CRC F090EC05 Copy CRC F090EC05 Accurately ripped (confidence 3) [2034A2B3] (AR v2) Copy OK

Track 37

Filename M:\Incomplete\松田彬人 - 『響け! ユーフォニアム』オリジナルサウンドトラック「おもいでミュージック」 (2015) [FLAC] {LACA-94101}\Disc 1\37 - 三日月の舞 トランペットソロパート・オーディション(香織).wav

Pre-gap length 0:00:02.96

Peak level 57.2 % Extraction speed 1.8 X Track quality 100.0 % Test CRC CA4277E6 Copy CRC CA4277E6 Accurately ripped (confidence 3) [278E10A0] (AR v2) Copy OK

Track 38

Filename M:\Incomplete\松田彬人 - 『響け! ユーフォニアム』オリジナルサウンドトラック「おもいでミュージック」 (2015) [FLAC] {LACA-94101}\Disc 1\38 - 三日月の舞 トランペットソロパート・オーディション(麗奈).wav

Pre-gap length 0:00:02.45

Peak level 63.1 % Extraction speed 2.0 X Track quality 100.0 % Test CRC C138DFBD Copy CRC C138DFBD Accurately ripped (confidence 3) [3BB3D1AC] (AR v2) Copy OK

All tracks accurately ripped

No errors occurred

End of status report

---- CUETools DB Plugin V2.1.6

[CTDB TOCID: u.5H9KqsP2eH3GYzAMfOWll.aOY-] foundSubmit result: u.5H9KqsP2eH3GYzAMfOWll.aOY- has been confirmedTrack | CTDB Status 1 | (42/42) Accurately ripped 2 | (41/42) Accurately ripped 3 | (42/42) Accurately ripped 4 | (41/42) Accurately ripped 5 | (42/42) Accurately ripped 6 | (42/42) Accurately ripped 7 | (42/42) Accurately ripped 8 | (42/42) Accurately ripped 9 | (41/42) Accurately ripped 10 | (42/42) Accurately ripped 11 | (42/42) Accurately ripped 12 | (42/42) Accurately ripped 13 | (42/42) Accurately ripped 14 | (42/42) Accurately ripped 15 | (42/42) Accurately ripped 16 | (42/42) Accurately ripped 17 | (42/42) Accurately ripped 18 | (42/42) Accurately ripped 19 | (42/42) Accurately ripped 20 | (42/42) Accurately ripped 21 | (42/42) Accurately ripped 22 | (42/42) Accurately ripped 23 | (42/42) Accurately ripped 24 | (42/42) Accurately ripped 25 | (42/42) Accurately ripped 26 | (42/42) Accurately ripped 27 | (42/42) Accurately ripped 28 | (42/42) Accurately ripped 29 | (42/42) Accurately ripped 30 | (42/42) Accurately ripped 31 | (42/42) Accurately ripped 32 | (42/42) Accurately ripped 33 | (42/42) Accurately ripped 34 | (42/42) Accurately ripped 35 | (42/42) Accurately ripped 36 | (42/42) Accurately ripped 37 | (42/42) Accurately ripped 38 | (42/42) Accurately ripped

==== Log checksum 3AA1C5E454CBDEA92963A0E0F5C5063BF81D8CF4EA2DEAC01983DA2A51A5854D ====
Exact Audio Copy V1.1 from 23. June 2015

EAC extraction logfile from 14. August 2015, 3:16

Various Artists / TVアニメ『響け! ユーフォニアム』オリジナルサウンドトラック

Used drive : HL-DT-STBD-RE WH12LS30 Adapter: 1 ID: 0

Read mode : SecureUtilize accurate stream : YesDefeat audio cache : YesMake use of C2 pointers : No

Read offset correction : 667Overread into Lead-In and Lead-Out : NoFill up missing offset samples with silence : YesDelete leading and trailing silent blocks : NoNull samples used in CRC calculations : YesUsed interface : Native Win32 interface for Win NT & 2000Gap handling : Appended to previous track

Used output format : User Defined EncoderSelected bitrate : 1024 kBit/sQuality : HighAdd ID3 tag : NoCommand line compressor : C:\Program Files (x86)\FLAC\flac.exeAdditional command line options : -8 -V -T "ARTIST=%artist%" -T "TITLE=%title%" -T "ALBUM=%albumtitle%" -T "DATE=%year%" -T "TRACKNUMBER=%tracknr%" -T "GENRE=%genre%" -T "PERFORMER=%albuminterpret%" -T "COMPOSER=%composer%" %haslyrics%--tag-from-file=LYRICS="%lyricsfile%"%haslyrics% -T "ALBUMARTIST=%albumartist%" -T "DISCNUMBER=%cdnumber%" -T "TOTALDISCS=%totalcds%" -T "TOTALTRACKS=%numtracks%" -T "COMMENT=%comment%" %source% -o %dest%

TOC of the extracted CD

Track | Start | Length | Start sector | End sector --------------------------------------------------------- 1 | 0:00.00 | 1:04.65 | 0 | 4864 2 | 1:04.65 | 1:12.66 | 4865 | 10330 3 | 2:17.56 | 1:14.16 | 10331 | 15896 4 | 3:31.72 | 9:14.36 | 15897 | 57482 5 | 12:46.33 | 1:14.52 | 57483 | 63084 6 | 14:01.10 | 0:25.14 | 63085 | 64973 7 | 14:26.24 | 2:00.02 | 64974 | 73975 8 | 16:26.26 | 3:42.21 | 73976 | 90646 9 | 20:08.47 | 2:24.44 | 90647 | 101490 10 | 22:33.16 | 3:57.63 | 101491 | 119328 11 | 26:31.04 | 0:45.12 | 119329 | 122715 12 | 27:16.16 | 1:47.27 | 122716 | 130767 13 | 29:03.43 | 10:34.21 | 130768 | 178338 14 | 39:37.64 | 3:30.02 | 178339 | 194090 15 | 43:07.66 | 6:44.08 | 194091 | 224398 16 | 49:51.74 | 6:49.00 | 224399 | 255073 17 | 56:40.74 | 5:08.07 | 255074 | 278180 18 | 61:49.06 | 5:02.02 | 278181 | 300832 19 | 66:51.08 | 1:13.11 | 300833 | 306318

Track 1

Filename M:\Incomplete\松田彬人 - 『響け! ユーフォニアム』オリジナルサウンドトラック「おもいでミュージック」 (2015) [FLAC] {LACA-94101}\Disc 2\01 - 松田彬人 - Starting the project (Big Band Ver.).wav

Pre-gap length 0:00:02.00

Peak level 78.0 % Extraction speed 0.8 X Track quality 100.0 % Test CRC 8AA37BBC Copy CRC 8AA37BBC Accurately ripped (confidence 2) [C3FC6D0F] (AR v2) Copy OK

Track 2

Filename M:\Incomplete\松田彬人 - 『響け! ユーフォニアム』オリジナルサウンドトラック「おもいでミュージック」 (2015) [FLAC] {LACA-94101}\Disc 2\02 - 北宇治高校吹奏楽部3年&2年選抜メンバー(フレッシュマン・ウィンド・アンサンブル) - 暴れん坊将軍のテーマ(指導前 Ver.).wav

Pre-gap length 0:00:03.96

Peak level 78.2 % Extraction speed 0.9 X Track quality 100.0 % Test CRC F5E26F28 Copy CRC F5E26F28 Accurately ripped (confidence 2) [D97729C4] (AR v2) Copy OK

Track 3

Filename M:\Incomplete\松田彬人 - 『響け! ユーフォニアム』オリジナルサウンドトラック「おもいでミュージック」 (2015) [FLAC] {LACA-94101}\Disc 2\03 - 北宇治高校吹奏楽部3年&2年選抜メンバー(フレッシュマン・ウィンド・アンサンブル) - 暴れん坊将軍のテーマ(指導後 Ver.).wav

Pre-gap length 0:00:01.66

Peak level 86.0 % Extraction speed 0.9 X Track quality 100.0 % Test CRC F75CA90E Copy CRC F75CA90E Accurately ripped (confidence 2) [457678B5] (AR v2) Copy OK

Track 4

Filename M:\Incomplete\松田彬人 - 『響け! ユーフォニアム』オリジナルサウンドトラック「おもいでミュージック」 (2015) [FLAC] {LACA-94101}\Disc 2\04 - 大吉山北中学吹奏楽部(フレッシュマン・ウィンド・アンサンブル) - 地獄のオルフェ.wav

Pre-gap length 0:00:02.94

Peak level 91.4 % Extraction speed 1.4 X Track quality 100.0 % Test CRC F7CD1AAB Copy CRC F7CD1AAB Accurately ripped (confidence 2) [A9E4F575] (AR v2) Copy OK

Track 5

Filename M:\Incomplete\松田彬人 - 『響け! ユーフォニアム』オリジナルサウンドトラック「おもいでミュージック」 (2015) [FLAC] {LACA-94101}\Disc 2\05 - 高坂麗奈(須田美里) - 交響曲第9番 ホ短調 作品95「新世界より」第2楽章.wav

Pre-gap length 0:00:03.46

Peak level 37.5 % Extraction speed 0.8 X Track quality 99.8 % Test CRC CBA8ECA1 Copy CRC CBA8ECA1 Accurately ripped (confidence 2) [A327377C] (AR v2) Copy OK

Track 6

Filename M:\Incomplete\松田彬人 - 『響け! ユーフォニアム』オリジナルサウンドトラック「おもいでミュージック」 (2015) [FLAC] {LACA-94101}\Disc 2\06 - 北宇治高校吹奏楽部(フレッシュマン・ウィンド・アンサンブル) - 海兵隊(指導前 Ver.).wav

Pre-gap length 0:00:01.94

Peak level 55.1 % Extraction speed 0.7 X Track quality 100.0 % Test CRC C18D344C Copy CRC C18D344C Accurately ripped (confidence 2) [F460497A] (AR v2) Copy OK

Track 7

Filename M:\Incomplete\松田彬人 - 『響け! ユーフォニアム』オリジナルサウンドトラック「おもいでミュージック」 (2015) [FLAC] {LACA-94101}\Disc 2\07 - 北宇治高校吹奏楽部(フレッシュマン・ウィンド・アンサンブル) - 海兵隊(指導後 Ver.).wav

Pre-gap length 0:00:01.94

Peak level 88.9 % Extraction speed 1.3 X Track quality 100.0 % Test CRC CF52EB01 Copy CRC CF52EB01 Accurately ripped (confidence 2) [64910070] (AR v2) Copy OK

Track 8

Filename M:\Incomplete\松田彬人 - 『響け! ユーフォニアム』オリジナルサウンドトラック「おもいでミュージック」 (2015) [FLAC] {LACA-94101}\Disc 2\08 - フレッシュマン・ウィンド・アンサンブル - The Fairest of the Fair March.wav

Pre-gap length 0:00:02.96

Peak level 95.6 % Extraction speed 1.6 X Track quality 100.0 % Test CRC 0308C853 Copy CRC 0308C853 Accurately ripped (confidence 2) [375085EB] (AR v2) Copy OK

Track 9

Filename M:\Incomplete\松田彬人 - 『響け! ユーフォニアム』オリジナルサウンドトラック「おもいでミュージック」 (2015) [FLAC] {LACA-94101}\Disc 2\09 - 立華高校吹奏楽部(フレッシュマン・ウィンド・アンサンブル) - FUNICULI FUNICULA.wav

Pre-gap length 0:00:02.45

Peak level 98.8 % Extraction speed 1.5 X Track quality 100.0 % Test CRC 9AF987F6 Copy CRC 9AF987F6 Accurately ripped (confidence 2) [7F96CE0B] (AR v2) Copy OK

Track 10

Filename M:\Incomplete\松田彬人 - 『響け! ユーフォニアム』オリジナルサウンドトラック「おもいでミュージック」 (2015) [FLAC] {LACA-94101}\Disc 2\10 - 北宇治高校吹奏楽部(フレッシュマン・ウィンド・アンサンブル) - RYDEEN.wav

Pre-gap length 0:00:01.93

Peak level 98.8 % Extraction speed 1.7 X Track quality 100.0 % Test CRC 1F9E2696 Copy CRC 1F9E2696 Accurately ripped (confidence 2) [18271594] (AR v2) Copy OK

Track 11

Filename M:\Incomplete\松田彬人 - 『響け! ユーフォニアム』オリジナルサウンドトラック「おもいでミュージック」 (2015) [FLAC] {LACA-94101}\Disc 2\11 - 黄前久美子、加藤葉月、川島緑輝(矢口将大、谷口順音、山田彩香) - きらきら星.wav

Pre-gap length 0:00:02.44

Peak level 53.7 % Extraction speed 0.7 X Track quality 99.7 % Test CRC 9D38503E Copy CRC 9D38503E Accurately ripped (confidence 2) [F378C544] (AR v2) Copy OK

Track 12

Filename M:\Incomplete\松田彬人 - 『響け! ユーフォニアム』オリジナルサウンドトラック「おもいでミュージック」 (2015) [FLAC] {LACA-94101}\Disc 2\12 - 黄前久美子、高坂麗奈(円能寺博行、上田じん) - 愛を見つけた場所.wav

Pre-gap length 0:00:02.44

Peak level 49.6 % Extraction speed 1.5 X Track quality 100.0 % Test CRC ACA2189E Copy CRC ACA2189E Accurately ripped (confidence 2) [2800BF7C] (AR v2) Copy OK

Track 13

Filename M:\Incomplete\松田彬人 - 『響け! ユーフォニアム』オリジナルサウンドトラック「おもいでミュージック」 (2015) [FLAC] {LACA-94101}\Disc 2\13 - フレッシュマン・ウィンド・アンサンブル - 交響組曲「シェエラザード」より -Highlights-.wav

Pre-gap length 0:00:02.44

Peak level 83.1 % Extraction speed 2.1 X Track quality 100.0 % Test CRC 8035620A Copy CRC 8035620A Accurately ripped (confidence 2) [27C7E191] (AR v2) Copy OK

Track 14

Filename M:\Incomplete\松田彬人 - 『響け! ユーフォニアム』オリジナルサウンドトラック「おもいでミュージック」 (2015) [FLAC] {LACA-94101}\Disc 2\14 - 北宇治高校吹奏楽部(フレッシュマン・ウィンド・アンサンブル) - プロヴァンスの風.wav

Pre-gap length 0:00:01.93

Peak level 79.4 % Extraction speed 2.0 X Track quality 100.0 % Test CRC 14F86D54 Copy CRC 14F86D54 Accurately ripped (confidence 2) [0261AEF7] (AR v2) Copy OK

Track 15

Filename M:\Incomplete\松田彬人 - 『響け! ユーフォニアム』オリジナルサウンドトラック「おもいでミュージック」 (2015) [FLAC] {LACA-94101}\Disc 2\15 - 北宇治高校吹奏楽部(フレッシュマン・ウィンド・アンサンブル) - 三日月の舞(香織 トランペットソロ Ver.).wav

Pre-gap length 0:00:02.45

Peak level 92.7 % Extraction speed 2.3 X Track quality 100.0 % Test CRC F2CE28D8 Copy CRC F2CE28D8 Accurately ripped (confidence 2) [5A839AFC] (AR v2) Copy OK

Track 16

Filename M:\Incomplete\松田彬人 - 『響け! ユーフォニアム』オリジナルサウンドトラック「おもいでミュージック」 (2015) [FLAC] {LACA-94101}\Disc 2\16 - 北宇治高校吹奏楽部(フレッシュマン・ウィンド・アンサンブル) - 三日月の舞(麗奈 トランペットソロ Ver.).wav

Pre-gap length 0:00:02.45

Peak level 93.3 % Extraction speed 2.2 X Track quality 99.9 % Test CRC C219F361 Copy CRC C219F361 Accurately ripped (confidence 2) [A3C18141] (AR v2) Copy OK

Track 17

Filename M:\Incomplete\松田彬人 - 『響け! ユーフォニアム』オリジナルサウンドトラック「おもいでミュージック」 (2015) [FLAC] {LACA-94101}\Disc 2\17 - フレッシュマン・ウィンド・アンサンブル - DREAM SOLISTER (Wind Orchestra Ver.).wav

Pre-gap length 0:00:02.45

Peak level 98.8 % Extraction speed 2.2 X Track quality 99.9 % Test CRC E84DC8F4 Copy CRC E84DC8F4 Accurately ripped (confidence 2) [F9E3F7A2] (AR v2) Copy OK

Track 18

Filename M:\Incomplete\松田彬人 - 『響け! ユーフォニアム』オリジナルサウンドトラック「おもいでミュージック」 (2015) [FLAC] {LACA-94101}\Disc 2\18 - フレッシュマン・ウィンド・アンサンブル - トゥッティ! (Wind Orchestra Ver.).wav

Pre-gap length 0:00:02.96

Peak level 95.1 % Extraction speed 2.5 X Track quality 100.0 % Test CRC 9848DAC7 Copy CRC 9848DAC7 Accurately ripped (confidence 2) [8C54E6C2] (AR v2) Copy OK

Track 19

Filename M:\Incomplete\松田彬人 - 『響け! ユーフォニアム』オリジナルサウンドトラック「おもいでミュージック」 (2015) [FLAC] {LACA-94101}\Disc 2\19 - フレッシュマン・ウィンド・アンサンブル - Starting the project (Wind Orchestra Ver.).wav

Pre-gap length 0:00:01.42

Peak level 92.5 % Extraction speed 1.9 X Track quality 100.0 % Test CRC 128ED740 Copy CRC 128ED740 Accurately ripped (confidence 2) [B3438104] (AR v2) Copy OK

All tracks accurately ripped

No errors occurred

End of status report

---- CUETools DB Plugin V2.1.6

[CTDB TOCID: VHgjO0I3PSpyE1TZxgalritWFNg-] foundSubmit result: VHgjO0I3PSpyE1TZxgalritWFNg- has been confirmedTrack | CTDB Status 1 | (47/47) Accurately ripped 2 | (47/47) Accurately ripped 3 | (47/47) Accurately ripped 4 | (47/47) Accurately ripped 5 | (46/47) Accurately ripped 6 | (47/47) Accurately ripped 7 | (47/47) Accurately ripped 8 | (47/47) Accurately ripped 9 | (47/47) Accurately ripped 10 | (47/47) Accurately ripped 11 | (47/47) Accurately ripped 12 | (47/47) Accurately ripped 13 | (47/47) Accurately ripped 14 | (47/47) Accurately ripped 15 | (47/47) Accurately ripped 16 | (47/47) Accurately ripped 17 | (47/47) Accurately ripped 18 | (47/47) Accurately ripped 19 | (47/47) Accurately ripped

==== Log checksum 3664D23E69EC0B44815286FE24B21E4D88936CD99336840E74A8472C62667350 ====
REM GENRE AnimeREM DATE 2015REM DISCID 36113D26REM COMMENT "ExactAudioCopy v1.1"CATALOG 4540774904105PERFORMER "Akito Matsuda"TITLE "Sound! Euphonium Original Soundtrack Omoide Music"FILE "01 - Hajimari no Senritsu.wav" WAVE TRACK 01 AUDIO TITLE "Hajimari No Senritsu" PERFORMER "Akito Matsuda" ISRC JPI101500861 INDEX 01 00:00:00 TRACK 02 AUDIO TITLE "Oboroge Na Genzai" PERFORMER "Akito Matsuda" ISRC JPI101500862 INDEX 00 03:00:39FILE "02 - Oboroge na Genzai.wav" WAVE INDEX 01 00:00:00 TRACK 03 AUDIO TITLE "Shintenchi" PERFORMER "Akito Matsuda" ISRC JPI101500863 INDEX 00 02:19:11FILE "03 - Shintenchi.wav" WAVE INDEX 01 00:00:00 TRACK 04 AUDIO TITLE "Junshin" PERFORMER "Akito Matsuda" ISRC JPI101500864 INDEX 00 01:59:61FILE "04 - Junshin.wav" WAVE INDEX 01 00:00:00 TRACK 05 AUDIO TITLE "Seishun No Ruten" PERFORMER "Akito Matsuda" ISRC JPI101500865 INDEX 00 02:11:55FILE "05 - Seishun no Ruten.wav" WAVE INDEX 01 00:00:00 TRACK 06 AUDIO TITLE "Sonna Ni Tanoshii No" PERFORMER "Akito Matsuda" ISRC JPI101500866 INDEX 00 02:21:51FILE "06 - Sonna ni Tanoshii no.wav" WAVE INDEX 01 00:00:00 TRACK 07 AUDIO TITLE "Hazumu Omoi" PERFORMER "Akito Matsuda" ISRC JPI101500867 INDEX 00 02:08:13FILE "07 - Hazumu Omoi.wav" WAVE INDEX 01 00:00:00 TRACK 08 AUDIO TITLE "Iroasenu Kako" PERFORMER "Akito Matsuda" ISRC JPI101500868 INDEX 00 02:03:74FILE "08 - Iroasenu Kako.wav" WAVE INDEX 01 00:00:00 TRACK 09 AUDIO TITLE "Chiisana Fuan" PERFORMER "Akito Matsuda" ISRC JPI101500869 INDEX 00 01:58:52FILE "09 - Chiisana Fuan.wav" WAVE INDEX 01 00:00:00FILE "10 - Junjou.wav" WAVE TRACK 10 AUDIO TITLE "Junjou" PERFORMER "Akito Matsuda" ISRC JPI101500870 INDEX 01 00:00:00 TRACK 11 AUDIO TITLE "Ippozutsu Mae E" PERFORMER "Akito Matsuda" ISRC JPI101500968 INDEX 00 02:22:55FILE "11 - Ippozutsu Mae e.wav" WAVE INDEX 01 00:00:00 TRACK 12 AUDIO TITLE "Toushindai No Hibi" PERFORMER "Akito Matsuda" ISRC JPI101500871 INDEX 00 02:08:50FILE "12 - Toushindai no Hibi.wav" WAVE INDEX 01 00:00:00 TRACK 13 AUDIO TITLE "Taainai Nayamigoto" PERFORMER "Akito Matsuda" ISRC JPI101500872 INDEX 00 02:03:14FILE "13 - Taainai Nayamigoto.wav" WAVE INDEX 01 00:00:00 TRACK 14 AUDIO TITLE "Kokoro Odoru Mirai" PERFORMER "Akito Matsuda" ISRC JPI101500873 INDEX 00 02:06:11FILE "14 - Kokoro Odoru Mirai.wav" WAVE INDEX 01 00:00:00 TRACK 15 AUDIO TITLE "Agata Matsuri" PERFORMER "Akito Matsuda" ISRC JPI101500874 INDEX 00 02:30:11FILE "15 - Agata Matsuri.wav" WAVE INDEX 01 00:00:00 TRACK 16 AUDIO TITLE "Seishun No Itami" PERFORMER "Akito Matsuda" ISRC JPI101500875 INDEX 00 02:56:26FILE "16 - Seishun no Itami.wav" WAVE INDEX 01 00:00:00 TRACK 17 AUDIO TITLE "Unmei No Nagare" PERFORMER "Akito Matsuda" ISRC JPI101500876 INDEX 00 02:07:51FILE "17 - Unmei no Nagare.wav" WAVE INDEX 01 00:00:00 TRACK 18 AUDIO TITLE "Tsutaetai Omoi" PERFORMER "Akito Matsuda" ISRC JPI101500877 INDEX 00 02:09:42FILE "18 - Tsutaetai Omoi.wav" WAVE INDEX 01 00:00:00 TRACK 19 AUDIO TITLE "Ishiki No Houga" PERFORMER "Akito Matsuda" ISRC JPI101500878 INDEX 00 03:00:74FILE "19 - Ishiki no Houga.wav" WAVE INDEX 01 00:00:00 TRACK 20 AUDIO TITLE "Fushin" PERFORMER "Akito Matsuda" ISRC JPI101500879 INDEX 00 02:26:16FILE "20 - Fushin.wav" WAVE INDEX 01 00:00:00 TRACK 21 AUDIO TITLE "Kiretsu" PERFORMER "Akito Matsuda" ISRC JPI101500880 INDEX 00 01:48:56FILE "21 - Kiretsu.wav" WAVE INDEX 01 00:00:00 TRACK 22 AUDIO TITLE "Haritsumeta Ito No You Ni" PERFORMER "Akito Matsuda" ISRC JPI101500881 INDEX 00 02:05:22FILE "22 - Haritsumeta Ito no you ni.wav" WAVE INDEX 01 00:00:00 TRACK 23 AUDIO TITLE "Shoutotsu" PERFORMER "Akito Matsuda" ISRC JPI101500882 INDEX 00 02:06:06FILE "23 - Shoutotsu.wav" WAVE INDEX 01 00:00:00 TRACK 24 AUDIO TITLE "Seishun No Kunou" PERFORMER "Akito Matsuda" ISRC JPI101500883 INDEX 00 01:59:44FILE "24 - Seishun no Kunou.wav" WAVE INDEX 01 00:00:00 TRACK 25 AUDIO TITLE "Tsuisou" PERFORMER "Akito Matsuda" ISRC JPI101500969 INDEX 00 02:03:07FILE "25 - Tsuisou.wav" WAVE INDEX 01 00:00:00 TRACK 26 AUDIO TITLE "Kasuka Na Hikari" PERFORMER "Akito Matsuda" ISRC JPI101500884 INDEX 00 02:25:60FILE "26 - Kasuka na Hikari.wav" WAVE INDEX 01 00:00:00 TRACK 27 AUDIO TITLE "Ichizu Na Hitomi" PERFORMER "Akito Matsuda" ISRC JPI101500885 INDEX 00 01:57:62FILE "27 - Ichizu na Hitomi.wav" WAVE INDEX 01 00:00:00 TRACK 28 AUDIO TITLE "Kasanaru Kokoro" PERFORMER "Akito Matsuda" ISRC JPI101500886 INDEX 00 02:25:11FILE "28 - Kasanaru Kokoro.wav" WAVE INDEX 01 00:00:00 TRACK 29 AUDIO TITLE "Kyoraisuru Omoi" PERFORMER "Akito Matsuda" ISRC JPI101500887 INDEX 00 02:07:68FILE "29 - Kyoraisuru Omoi.wav" WAVE INDEX 01 00:00:00 TRACK 30 AUDIO TITLE "Tutti! (Tv Size)" PERFORMER "Akito Matsuda" ISRC JPI101500888 INDEX 00 02:18:65FILE "30 - Tutti! (TV Size).wav" WAVE INDEX 01 00:00:00 TRACK 31 AUDIO TITLE "Dream Solister (Tv Size)" PERFORMER "Akito Matsuda" ISRC JPI101500889 INDEX 00 01:30:02FILE "31 - DREAM SOLISTER (TV Size).wav" WAVE INDEX 01 00:00:00 TRACK 32 AUDIO TITLE "Trumpet Tameshifuki" PERFORMER "Akito Matsuda" ISRC JPI101500890 INDEX 00 01:47:67FILE "32 - Trumpet Tameshifuki.wav" WAVE INDEX 01 00:00:00 TRACK 33 AUDIO TITLE "Kokou No Trumpet" PERFORMER "Akito Matsuda" ISRC JPI101500891 INDEX 00 00:09:31FILE "33 - Kokou no Trumpet.wav" WAVE INDEX 01 00:00:00 TRACK 34 AUDIO TITLE "Funki No Trumpet" PERFORMER "Akito Matsuda" ISRC JPI101500892 INDEX 00 00:18:51FILE "34 - Funki no Trumpet.wav" WAVE INDEX 01 00:00:00 TRACK 35 AUDIO TITLE "Yukai Na Tuba" PERFORMER "Akito Matsuda" ISRC JPI101500893 INDEX 00 00:07:61FILE "35 - Yukai na Tuba.wav" WAVE INDEX 01 00:00:00 TRACK 36 AUDIO TITLE "Zoushokushita Tuba" PERFORMER "Akito Matsuda" ISRC JPI101500894 INDEX 00 00:17:11FILE "36 - Zoushokushita Tuba.wav" WAVE INDEX 01 00:00:00 TRACK 37 AUDIO TITLE "Mikazuki No Mai Trumpet Solo Part Audition (Kaori)" PERFORMER "Akito Matsuda" ISRC JPI101500895 INDEX 00 00:12:14FILE "37 - Mikazuki no Mai Trumpet Solo Part Audition (Kaori).wav" WAVE INDEX 01 00:00:00 TRACK 38 AUDIO TITLE "Mikazuki No Mai Trumpet Solo Part Audition (Reina)" PERFORMER "Akito Matsuda" ISRC JPI101500896 INDEX 00 00:49:21FILE "38 - Mikazuki no Mai Trumpet Solo Part Audition (Reina).wav" WAVE INDEX 01 00:00:00
REM GENRE SoundtrackREM DATE 2015REM DISCID 1D0FF413REM COMMENT "ExactAudioCopy v1.1"CATALOG 4540774904105PERFORMER "Various Artists"TITLE "Sound! Euphonium Original Soundtrack Omoide Music"FILE "01 - Starting the project (Big Band Ver.).wav" WAVE TRACK 01 AUDIO TITLE "Starting The Project (Big Band Ver.)" PERFORMER "Various Artists" ISRC JPI101500897 INDEX 01 00:00:00 TRACK 02 AUDIO TITLE "Abarenbou Shougun No Theme (Shidoumae Ver.)" PERFORMER "Various Artists" ISRC JPI101500898 INDEX 00 01:00:68FILE "02 - Abarenbou Shougun no Theme (Shidoumae Ver.).wav" WAVE INDEX 01 00:00:00 TRACK 03 AUDIO TITLE "Abarenbou Shougun No Theme (Shidougo Ver.)" PERFORMER "Various Artists" ISRC JPI101500899 INDEX 00 01:11:16FILE "03 - Abarenbou Shougun no Theme (Shidougo Ver.).wav" WAVE INDEX 01 00:00:00 TRACK 04 AUDIO TITLE "Jigoku No Orphee" PERFORMER "Various Artists" ISRC JPI101500900 INDEX 00 01:11:20FILE "04 - Jigoku no Orphee.wav" WAVE INDEX 01 00:00:00 TRACK 05 AUDIO TITLE "Koukyoukyoku Dai-9-Ban Ho-Tanchou Sakuhin 95 Shinsekai Yori Dai-2 Gakushou" PERFORMER "Various Artists" ISRC JPI101500901 INDEX 00 09:11:01FILE "05 - Koukyoukyoku Dai-9-ban Ho-tanchou Sakuhin 95 Shinsekai yori Dai-2 Gakushou.wav" WAVE INDEX 01 00:00:00 TRACK 06 AUDIO TITLE "Kaiheitai (Shidoumae Ver.)" PERFORMER "Various Artists" ISRC JPI101500902 INDEX 00 01:12:56FILE "06 - Kaiheitai (Shidoumae Ver.).wav" WAVE INDEX 01 00:00:00 TRACK 07 AUDIO TITLE "Kaiheitai (Shidougo Ver.)" PERFORMER "Various Artists" ISRC JPI101500903 INDEX 00 00:23:18FILE "07 - Kaiheitai (Shidougo Ver.).wav" WAVE INDEX 01 00:00:00 TRACK 08 AUDIO TITLE "The Fairest Of The Fair March" PERFORMER "Various Artists" ISRC JPI101500904 INDEX 00 01:57:05FILE "08 - The Fairest of the Fair March.wav" WAVE INDEX 01 00:00:00 TRACK 09 AUDIO TITLE "Funiculi Funicula" PERFORMER "Various Artists" ISRC JPI101500905 INDEX 00 03:39:62FILE "09 - FUNICULI FUNICULA.wav" WAVE INDEX 01 00:00:00 TRACK 10 AUDIO TITLE "Rydeen" PERFORMER "Various Artists" ISRC JPI101500906 INDEX 00 02:22:49FILE "10 - RYDEEN.wav" WAVE INDEX 01 00:00:00 TRACK 11 AUDIO TITLE "Kirakiraboshi" PERFORMER "Various Artists" ISRC JPI101500907 INDEX 00 03:55:30FILE "11 - Kirakiraboshi.wav" WAVE INDEX 01 00:00:00 TRACK 12 AUDIO TITLE "Ai Wo Mitsuketa Basho" PERFORMER "Various Artists" ISRC JPI101500908 INDEX 00 00:42:54FILE "12 - Ai wo Mitsuketa Basho.wav" WAVE INDEX 01 00:00:00 TRACK 13 AUDIO TITLE "Koukyou Kumikyoku Scheherazade Yori -Highlights-" PERFORMER "Various Artists" ISRC JPI101500909 INDEX 00 01:44:69FILE "13 - Koukyou Kumikyoku Scheherazade yori -Highlights-.wav" WAVE INDEX 01 00:00:00 TRACK 14 AUDIO TITLE "Provence No Kaze" PERFORMER "Various Artists" ISRC JPI101500910 INDEX 00 10:32:26FILE "14 - Provence no Kaze.wav" WAVE INDEX 01 00:00:00 TRACK 15 AUDIO TITLE "Mikazuki No Mai (Kaori Trumpet Solo Ver.)" PERFORMER "Various Artists" ISRC JPI101500911 INDEX 00 03:27:43FILE "15 - Mikazuki no Mai (Kaori Trumpet Solo Ver.).wav" WAVE INDEX 01 00:00:00 TRACK 16 AUDIO TITLE "Mikazuki No Mai (Reina Trumpet Solo Ver.)" PERFORMER "Various Artists" ISRC JPI101500912 INDEX 00 06:41:49FILE "16 - Mikazuki no Mai (Reina Trumpet Solo Ver.).wav" WAVE INDEX 01 00:00:00 TRACK 17 AUDIO TITLE "Dream Solister (Wind Orchestra Ver.)" PERFORMER "Various Artists" ISRC JPI101500913 INDEX 00 06:46:41FILE "17 - DREAM SOLISTER (Wind Orchestra Ver.).wav" WAVE INDEX 01 00:00:00 TRACK 18 AUDIO TITLE "Tutti! (Wind Orchestra Ver.)" PERFORMER "Various Artists" ISRC JPI101500914 INDEX 00 05:05:10FILE "18 - Tutti! (Wind Orchestra Ver.).wav" WAVE INDEX 01 00:00:00 TRACK 19 AUDIO TITLE "Starting The Project (Wind Orchestra Ver.)" PERFORMER "Various Artists" ISRC JPI101500915 INDEX 00 05:00:45FILE "19 - Starting the project (Wind Orchestra Ver.).wav" WAVE INDEX 01 00:00:00


Трекер:  [ 30-Ноя-2015 05:00 ]

  

Скачать .torrent

Размер .torrent файла 19 KB


Размер: 695 MB
Хэш (hash) релиза: 5e035971f4555049fb437d68b478b31eede5495e

Торренты, похожие на Играй, Эуфониум! Hibike! Euphonium скачать торрент

Форум Название Автор Размер S L Добавлен
Саундтреки к аниме (mp3) ·· (OST) Играй! Эуфониум / Звучи Эуфониум! / Hibike! Euphonium / Hibike! Euphonium Movie (13 Albums) - 2015 - 2017г., 16 CD, MP3 (tracks), 48-320 kbps Galfimbul 19489014871.82 GB 0 0 1489390548

10:35

13-Мар-17

Саундтреки к аниме (mp3) ·· (OST) Играй! Эуфониум / Звучи Эуфониум! / Hibike! Euphonium / Hibike! Euphonium Movie (13 Albums) - 2015 - 2016г., 16 CD, MP3 (tracks), 48-320 kbps Galfimbul 19489014871.82 GB 0 0 1489222395

11:53

11-Мар-17

Саундтреки к аниме (mp3) ·· (OST) Играй! Эуфониум / Звучи Эуфониум! / Hibike! Euphonium / Hibike! Euphonium Movie - 2015 - 2016г., 13 CD, MP3 (tracks), 48-320 kbps Galfimbul 15804396091.47 GB 0 0 1479549634

13:00

19-Ноя-16

Саундтреки к аниме (mp3) ·· (OST) Играй! Эуфониум / Звучи Эуфониум! / Hibike! Euphonium / Hibike! Euphonium Movie - 2015 - 2016г., 13 CD, MP3 / OGG (tracks), 48-320 kbps Galfimbul 14631804981.36 GB 0 0 1479034027

13:47

13-Ноя-16

Саундтреки к аниме (lossless) ·· (OST/Soundtrack) Играй! Эуфониум / Звучи Эуфониум! / Hibike! Euphonium - 2015 г., FLAC (tracks), lossless [24/96] [3CD] Galfimbul 63310706875.9 GB 0 0 1451417250

22:27

29-Дек-15

Саундтреки к аниме (mp3) ·· (OST) Играй! Эуфониум / Звучи Эуфониум! / Hibike! Euphonium - 2015г., 6 CD, MP3 (tracks), 320 kbps Galfimbul 453276373432 MB 0 0 1441921654

00:47

11-Сен-15

Еще никто не оставлял запись к записи скачать торрент Играй, Эуфониум! Hibike! Euphonium . Будь первым!

!Обратная связь