Różowe lata 70-te / That '7... | Azab - Akibat Dzalim Kepada Ayah, Keranda Jenazah Anak Diserang Lebah | Auslschung (2018) Neue link: 2018/03/20 Views: 7620 Länge: 115 min IMDB rating: 7.2 Uploaded: 2018/03/20 Auslschung 2018

Скачать через торрент [ANIME] Исчезновение Харухи Судзумии Suzumiya Haruhi no Shoushitsu бесплатно русская версия torrent активатор

Статистика раздачи
Размер:  555 MB   |    Зарегистрирован:  2 года 8 месяцев   |    .torrent скачан:  17 раз   |   
Раздают:  1  
   
загрузка...
 
Автор Сообщение

Galfimbul

avatar Galfimbul


Исчезновение Харухи Судзумии / Suzumiya Haruhi no Shoushitsu / The Disappearance of Haruhi Suzumiya


Год выпуска: 2010
Страна: Япония
Жанр: фантастика, комедия, приключения, драма
Продолжительность: 02:41:48
Перевод: Любительский (многоголосый закадровый) ITLM, Silv, 4a4i, Eladiel, Say, Lupin (AniMedia)
Режиссер: Исихара Тацуя
Студия:
Описание: На дворе стояло промозглое зимнее утро. Самый обыкновенный старшеклассник Кён проводил утренние процедуры без каких-либо отклонений от нормы. Будильник был все таким же наглым и бессердечным, лицо в зеркале над раковиной отнюдь не лучилось бодростью и весельем, а возвышенность, на которой располагалась школа, по-прежнему хладнокровно испытывала школьников на выносливость.
И все же что-то в тот день было не так: странности начались с обмолвки Танигути о вещах, весьма озадачивших Кёна... Впрочем, наш герой с легкостью списал недоразумение на тараканов в голове давнего приятеля, коих по обыкновению водилось у него немало. Но самое интересное ждало его впереди. Придя в школу, юный ворчун с удивлением обнаружил на месте Харухи Судзумии... Рёко Асакуру. О том, что еще вчера с ними училась совсем другая барышня, помнил, конечно, только главный герой.

Да, вы все правильно поняли: главным событием того памятного дня стала пропажа юной богини… Чем закончилась вся эта жутко таинственная история, узнаете сами, посмотрев новое творение Kyoto Animation!
За конвертацию видео спасибо моему другу Toutaku!
Исходник (ссылка): [url]...3356369[/url]
Качество: BDRip
Формат: MP4
Видео: 320x240 (16:9), 350 Kbps, 23.976 fps
Аудио: Русский - AAC, 2 ch, 126 Kbps, 44.1 KHz
GeneralComplete name : D:\Раздачи\Suzumiya Haruhi no Shoushitsu.mp4Format : MPEG-4Format profile : Base MediaCodec ID : isomFile size : 555 MiBDuration : 2h 41mnOverall bit rate mode : VariableOverall bit rate : 479 KbpsEncoded date : UTC 2015-11-21 10:50:24Tagged date : UTC 2015-11-21 10:50:24

VideoID : 1Format : AVCFormat/Info : Advanced Video CodecFormat profile : [email protected] settings, CABAC : NoFormat settings, ReFrames : 1 frameCodec ID : avc1Codec ID/Info : Advanced Video CodingDuration : 2h 41mnBit rate : 350 KbpsMaximum bit rate : 2 253 KbpsWidth : 320 pixelsHeight : 240 pixelsDisplay aspect ratio : 16:9Frame rate mode : ConstantFrame rate : 23.976 fpsColor space : YUVChroma subsampling : 4:2:0Bit depth : 8 bitsScan type : ProgressiveBits/(Pixel*Frame) : 0.190Stream size : 407 MiB (73%)Writing library : x264 core 67 r1163+17 7d945dfEncoding settings : cabac=0 / ref=1 / deblock=1:0:0 / analyse=0x1:0x111 / me=hex / subme=6 / psy_rd=1.0:0.0 / mixed_ref=0 / me_range=16 / chroma_me=1 / trellis=0 / 8x8dct=0 / cqm=0 / deadzone=21,11 / chroma_qp_offset=-2 / threads=6 / nr=0 / decimate=1 / mbaff=0 / bframes=0 / keyint=250 / keyint_min=25 / scenecut=40 / rc=abr / bitrate=350 / ratetol=1.0 / qcomp=0.60 / qpmin=10 / qpmax=51 / qpstep=4 / ip_ratio=1.40 / aq=1:1.00Encoded date : UTC 2015-11-21 10:50:24Tagged date : UTC 2015-11-21 10:50:52

AudioID : 2Format : AACFormat/Info : Advanced Audio CodecFormat profile : LCCodec ID : 40Duration : 2h 41mnBit rate mode : VariableBit rate : 126 KbpsMaximum bit rate : 183 KbpsChannel(s) : 2 channelsChannel positions : Front: L RSampling rate : 44.1 KHzCompression mode : LossyStream size : 145 MiB (26%)Encoded date : UTC 2015-11-21 10:50:41Tagged date : UTC 2015-11-21 10:50:52


Трекер:  [ 23-Ноя-2015 08:00 ]

  

Скачать .torrent

Размер .torrent файла 11 KB


Размер: 555 MB
Хэш (hash) релиза: 6c7571d4985ce89e085baa8b935227717cf7af27

Еще никто не оставлял запись к записи скачать торрент [ANIME] Исчезновение Харухи Судзумии Suzumiya Haruhi no Shoushitsu . Будь первым!

!Обратная связь