Computer Active - 18 July 2018 pdf | Kings Quest Capítulo 5 [Jtag-Rgh][Dlc][1.58 GB]... | download shadow fighter legend apk

Скачать через торрент [SERIAL] Дневники вампира The Vampire Diaries бесплатно русская версия torrent активатор

Статистика раздачи
Размер:  2.15 GB   |    Зарегистрирован:  2 года 7 месяцев   |    .torrent скачан:  24 раза   |   
Раздают:  1  
   
загрузка...
 
Автор Сообщение

Galfimbul

avatar Galfimbul


Дневники вампира / The Vampire Diaries

Год выпуска: 2015

Страна: США
Жанр: ужасы, фэнтези, драма, мелодрама
Продолжительность: 00:42:00
Перевод: Профессиональный (многоголосый закадровый) (LostFilm)
Cубтитры: нет
Оригинальная аудиодорожка: нет

Режиссер: Маркос Сига
В ролях: Нина Добрев, Пол Уэсли, Иен Сомерхолдер, Стивен Р. МакКуин, Катерина Грэхэм, Кэндис Аккола, Зак Рериг, Сара Каннинг, Майкл Тревино, Мэттью Дэвис, Маргарит МакИнтайр, Малез Джоу...
Описание: Прошло всего четыре месяца после трагической аварии, в которой погибли их родители, и 17-летняя Елена Гилберт и ее 15-летний брат Джереми все еще пытаются оправиться от потери и вернуться к нормальной жизни. Елена всегда была отличной ученицей, красивой и популярной девушкой в школе, но теперь ей очень тяжело скрывать свою печаль от внешнего мира. В начале учебного года внимание Елены и ее друзей привлекает новый ученик, загадочный и красивый Стефан Сальваторе.

Стефан и Елена тут же чувствуют взаимную симпатию, но Елена даже не подозревает, что Стефан — вампир, которому уже сотни лет, и который старается мирно жить среди людей, несмотря на то, что его брат, Дэймон — воплощение вампирской жестокости и кровожадности. Теперь два брата-вампира — один добрый, другой злой — ведут борьбу за души Елены, ее друзей и других жителей городка Мистик Фоллз.Качество: WEB-DLRip
Формат: MP4
Видео кодек: XviD
Аудио кодек: AAC

Видео: MPEG-4 Visual at 1080 Кбит/сек; 640 x 360 (1.778) at 23.843 fps
Аудио: AAC at 128 Кбит/сек; 2 канала, 48,0 КГц

Релиз от -
01. День первый из где-то двадцати двух тысяч
02. Не отпускай меня
03. Эпоха невинности
04. Твоё сердце со мной
05. Переживи это
06. Подавать холодным
ОбщееПолное имя : D:\Фильмы\Сериалы\The Vampire Diaries.2015.S07.WEB-DLRip.MP4.rip by [Assassin's Creed]\The Vampire Diaries.E01.WEB-DLRip.MP4.rip by [Assassin's Creed].mp4Формат : MPEG-4Профиль формата : Base Media / Version 2Идентификатор кодека : mp42Размер файла : 369 МбайтПродолжительность : 42 м.Режим общего битрейта : ПеременныйОбщий поток : 1210 Кбит/секДата кодирования : UTC 2015-10-19 10:54:10Дата пометки : UTC 2015-10-19 10:54:10

ВидеоИдентификатор : 201Формат : MPEG-4 VisualПрофиль формата : Advanced [email protected]Параметр BVOP формата : НетПараметр QPel формата : НетПараметр GMC формата : Без точки переходаПараметр матрицы формата : Default (H.263)Идентификатор кодека : 20Продолжительность : 42 м.Вид битрейта : ПеременныйБитрейт : 1080 Кбит/секМаксимальный битрейт : 5908 Кбит/секШирина : 640 пикселейВысота : 360 пикселейСоотношение сторон : 16:9Режим частоты кадров : ПеременныйЧастота кадров : 23,843 кадра/секЧастота кадров в оригинале : 23,976 кадра/секМинимальная частота кадров : 0,470 кадр/секМаксимальная частота кадров : 23,976 кадра/секЦветовое пространство : YUVСубдискретизация насыщенности : 4:2:0Битовая глубина : 8 битТип развёртки : ПрогрессивнаяМетод сжатия : С потерямиБит/(Пиксели*Кадры) : 0.197Размер потока : 329 Мбайт (89%)Библиотека кодирования : XviD 1.2.1 (UTC 2008-12-04)Дата кодирования : UTC 2015-10-19 10:54:10Дата пометки : UTC 2015-10-19 10:54:27

АудиоИдентификатор : 101Формат : AACФормат/Информация : Advanced Audio CodecПрофиль формата : LCИдентификатор кодека : 40Продолжительность : 42 м.Вид битрейта : ПеременныйБитрейт : 128 Кбит/секМаксимальный битрейт : 148 Кбит/секКаналы : 2 каналаРасположение каналов : Front: L RЧастота : 48,0 КГцМетод сжатия : С потерямиРазмер потока : 38,9 Мбайт (11%)Дата кодирования : UTC 2015-10-19 10:54:26Дата пометки : UTC 2015-10-19 10:54:27

Прочее #1Идентификатор : 2Тип : Object descriptionФормат : SystemИдентификатор кодека : 1Продолжительность : 1 с. 0 мс.Дата кодирования : UTC 2015-10-19 10:54:27Дата пометки : UTC 2015-10-19 10:54:27

Прочее #2Идентификатор : 1Тип : Scene descriptionФормат : System CoreИдентификатор кодека : 2Продолжительность : 1 с. 0 мс.Дата кодирования : UTC 2015-10-19 10:54:27Дата пометки : UTC 2015-10-19 10:54:27


Трекер:  [ 22-Ноя-2015 10:30 ]

  

Скачать .torrent

Размер .torrent файла 11 KB


Размер: 2.15 GB
Хэш (hash) релиза: 025f0836e0c4c3800c9bb9bb565eda395d35e405

Еще никто не оставлял запись к записи скачать торрент [SERIAL] Дневники вампира The Vampire Diaries . Будь первым!

!Обратная связь