The Watcher 2018
Historias Calientes – 11 enero 2018

Скачать через торрент [VIDEO] Путешествие на Запад: Покорение демонов Journey to the West: Conquering the Demons бесплатно русская версия torrent активатор

Статистика раздачи
Размер:  1.44 GB   |    Зарегистрирован:  2 года 5 месяцев   |    .torrent скачан:  23 раза   |   
Раздают:  1  
   
загрузка...
 
Автор Сообщение

Galfimbul

avatar Galfimbul


Путешествие на Запад: Покорение демонов / Journey to the West: Conquering the Demons / Daai wa sai you chi Chui mo chun kei

Год выпуска: 2013
Страна: Китай
Жанр: фэнтези, комедия, приключения
Продолжительность: 01:49:43
Перевод: Любительский (двухголосый закадровый) Ольга Гринтиева и Виктор Ерёменко "GREEN TEA"
Cубтитры: нет
Режиссеры: Стивен Чоу / Stephen Chow, Дерек Квок / Chi-kin Kwok
В ролях: Бо Хуанг, Чжан Вэнь, Шу Ци, Шоу Луо, Крисси Чау, Чи Чи Линг, Мин Хун Фанг, Ю Хин и другие .
Описание: История об искренней любви и преданности, о древних демонах и об охотниках на демонов, которые соперничают друг с другом за право быть лучшими.
Релиз группы
Качество: HDRip / [url=...4447199]BDRip 720p[/url]
Формат: MP4
Видео кодек: H.264
Аудио кодек: AAC
Видео: 960x408 AR:2.35 1740 kbps 24 fps
Аудио: [Русский] 2ch 48 kHz 128 kbps - [GREEN TEA]
...last pass...

x264.exe: --pass 2 --bitrate 1740 --preset medium --profile high --level 4.1 --ref 8 --aq-strength 0.8 --deblock -2:-2 --merange 32 --bframes 7 --direct auto --b-adapt 2 --no-fast-pskip --no-dct-decimate --psy-rd 0.90:0.00 --subme 11 --me umh --colorprim bt709 --transfer bt709 --colormatrix bt709 --sar 1:1 --stats "D:\Journey.to.the.West.Conquering.the.Demons.2013.BDRip.720p.log" --output "D:\Journey.to.the.West.Conquering.the.Demons.2013.BDRip.720p.mp4" "D:\XVID4PSP 5\Temp\0122.avs"

avs [info]: 960x408p 1:1 @ 24/1 fps (cfr)
x264 [info]: using SAR=1/1
x264 [info]: using cpu capabilities: MMX2 SSE2Fast SSSE3 SSE4.2 LZCNT
x264 [info]: profile High, level 4.1

x264 [info]: frame I:1342 Avg QP:17.62 size: 71477
x264 [info]: frame P:38828 Avg QP:21.08 size: 18890
x264 [info]: frame B:117828 Avg QP:23.91 size: 5097
x264 [info]: consecutive B-frames: 3.5% 4.7% 11.0% 25.2% 12.4% 39.4% 2.3% 1.4%
x264 [info]: mb I I16..4: 8.2% 66.5% 25.3%
x264 [info]: mb P I16..4: 2.0% 11.9% 2.8% P16..4: 41.1% 21.3% 14.7% 0.0% 0.0% skip: 6.3%
x264 [info]: mb B I16..4: 0.2% 1.9% 0.6% B16..8: 37.1% 8.0% 2.9% direct: 3.3% skip:46.0% L0:40.7% L1:49.4% BI: 9.9%
x264 [info]: 8x8 transform intra:70.3% inter:61.8%
x264 [info]: direct mvs spatial:96.0% temporal:4.0%
x264 [info]: coded y,uvDC,uvAC intra: 85.1% 81.2% 47.2% inter: 22.7% 24.7% 8.0%
x264 [info]: i16 v,h,dc,p: 26% 19% 8% 48%
x264 [info]: i8 v,h,dc,ddl,ddr,vr,hd,vl,hu: 11% 7% 3% 10% 16% 14% 15% 12% 13%
x264 [info]: i4 v,h,dc,ddl,ddr,vr,hd,vl,hu: 10% 6% 2% 9% 16% 15% 15% 12% 15%
x264 [info]: i8c dc,h,v,p: 38% 25% 19% 19%
x264 [info]: Weighted P-Frames: Y:4.4% UV:1.5%
x264 [info]: ref P L0: 55.3% 15.4% 13.1% 4.8% 4.0% 3.0% 2.4% 1.7% 0.3% 0.0%
x264 [info]: ref B L0: 84.1% 7.5% 3.6% 1.7% 1.9% 0.8% 0.4%
x264 [info]: ref B L1: 94.6% 5.4%
x264 [info]: kb/s:1737.73

x264 [total]: encoded 157998 frames, 16.74 fps, 1737.73 kb/s

GeneralComplete name : D:\Torrents\Journey to the West Conquering the Demons.2013.HDRip.x264.960x.rip by Frost O.S.mp4Format : MPEG-4Format profile : Base MediaCodec ID : isomFile size : 1.44 GiBDuration : 1h 49mnOverall bit rate mode : VariableOverall bit rate : 1 871 KbpsMovie name : Journey to the West Conquering the Demons 2013 HDRip x264 960x rip by Frost O SContentType : Short FilmEncoded date : UTC 2015-11-16 12:09:58Tagged date : UTC 2015-11-16 12:11:08Writing application : MkvToMp4 version: 0.224 (x64)Comment : rip by Frost O.S

VideoID : 1Format : AVCFormat/Info : Advanced Video CodecFormat profile : [email protected] settings, CABAC : YesFormat settings, ReFrames : 8 framesCodec ID : avc1Codec ID/Info : Advanced Video CodingDuration : 1h 49mnBit rate : 1 740 KbpsMaximum bit rate : 18.2 MbpsWidth : 960 pixelsHeight : 408 pixelsDisplay aspect ratio : 2.35:1Frame rate mode : ConstantFrame rate : 24.000 fpsColor space : YUVChroma subsampling : 4:2:0Bit depth : 8 bitsScan type : ProgressiveBits/(Pixel*Frame) : 0.185Stream size : 1.33 GiB (93%)Writing library : x264 core 130 r2273 b3065e6Encoding settings : cabac=1 / ref=8 / deblock=1:-2:-2 / analyse=0x3:0x113 / me=umh / subme=9 / psy=1 / psy_rd=0.90:0.00 / mixed_ref=1 / me_range=32 / chroma_me=1 / trellis=1 / 8x8dct=1 / cqm=0 / deadzone=21,11 / fast_pskip=0 / chroma_qp_offset=-2 / threads=3 / lookahead_threads=1 / sliced_threads=0 / nr=0 / decimate=0 / interlaced=0 / bluray_compat=0 / constrained_intra=0 / bframes=7 / b_pyramid=2 / b_adapt=2 / b_bias=0 / direct=3 / weightb=1 / open_gop=0 / weightp=2 / keyint=250 / keyint_min=24 / scenecut=40 / intra_refresh=0 / rc_lookahead=40 / rc=2pass / mbtree=1 / bitrate=1740 / ratetol=1.0 / qcomp=0.60 / qpmin=0 / qpmax=69 / qpstep=4 / cplxblur=20.0 / qblur=0.5 / ip_ratio=1.40 / aq=1:0.80Language : EnglishEncoded date : UTC 2015-11-16 12:09:58Tagged date : UTC 2015-11-16 12:10:24Color range : LimitedColor primaries : BT.709Transfer characteristics : BT.709Matrix coefficients : BT.709

AudioID : 2Format : AACFormat/Info : Advanced Audio CodecFormat profile : LCCodec ID : 40Duration : 1h 49mnBit rate mode : VariableBit rate : 128 KbpsMaximum bit rate : 135 KbpsChannel(s) : 2 channelsChannel positions : Front: L RSampling rate : 48.0 KHzCompression mode : LossyStream size : 101 MiB (7%)Language : RussianEncoded date : UTC 2015-11-16 12:10:15Tagged date : UTC 2015-11-16 12:10:24


Трекер:  [ 18-Ноя-2015 22:00 ]

  

Скачать .torrent

Размер .torrent файла 15 KB


Размер: 1.44 GB
Хэш (hash) релиза: be1dabb8278ee01d6f0c2d74cdc52ea2a61757d3

Еще никто не оставлял запись к записи скачать торрент [VIDEO] Путешествие на Запад: Покорение демонов Journey to the West: Conquering the Demons . Будь первым!

!Обратная связь