हिन्दी | Anthony McPartlin | #dramat obyczajowy

Скачать через торрент [VIDEO] Путешествие на Запад: Покорение демонов Journey to the West: Conquering the Demons бесплатно русская версия torrent активатор

Статистика раздачи
Размер:  480 MB   |    Зарегистрирован:  2 года 8 месяцев   |    .torrent скачан:  15 раз   |   
Раздают:  1  
   
загрузка...
 
Автор Сообщение

Galfimbul

avatar Galfimbul


Путешествие на Запад: Покорение демонов / Journey to the West: Conquering the Demons / Daai wa sai you chi Chui mo chun kei

Год выпуска: 2013
Страна: Китай
Жанр: фэнтези, комедия, приключения
Продолжительность: 01:49:43
Перевод: Любительский (двухголосый закадровый) Ольга Гринтиева и Виктор Ерёменко "GREEN TEA"
Cубтитры: нет
Режиссеры: Стивен Чоу / Stephen Chow, Дерек Квок / Chi-kin Kwok
В ролях: Бо Хуанг, Чжан Вэнь, Шу Ци, Шоу Луо, Крисси Чау, Чи Чи Линг, Мин Хун Фанг, Ю Хин и другие .
Описание: История об искренней любви и преданности, о древних демонах и об охотниках на демонов, которые соперничают друг с другом за право быть лучшими.
Релиз группы
Качество: HDRip / [url=...4447199]BDRip 720p[/url]
Формат: MP4
Видео кодек: XviD
Аудио кодек: AAC
Видео: 480x200 AR:2.40 480 kbps 24 fps
Аудио: [Русский] 2ch 48 kHz 128 kbps - [GREEN TEA]
GeneralComplete name : D:\Torrents\Journey to the West Conquering the Demons.2013.HDRip.XviD.480x.rip by Frost O.S.mp4Format : MPEG-4Format profile : Base Media / Version 2Codec ID : mp42File size : 480 MiBDuration : 1h 49mnOverall bit rate mode : VariableOverall bit rate : 610 KbpsEncoded date : UTC 2015-11-16 11:50:14Tagged date : UTC 2015-11-16 11:50:14

VideoID : 201Format : MPEG-4 VisualFormat profile : Advanced [email protected] settings, BVOP : YesFormat settings, QPel : NoFormat settings, GMC : No warppointsFormat settings, Matrix : CustomCodec ID : 20Duration : 1h 49mnBit rate mode : VariableBit rate : 480 KbpsMaximum bit rate : 3 949 KbpsWidth : 480 pixelsHeight : 200 pixelsDisplay aspect ratio : 2.40:1Frame rate mode : ConstantFrame rate : 24.000 fpsColor space : YUVChroma subsampling : 4:2:0Bit depth : 8 bitsScan type : ProgressiveCompression mode : LossyBits/(Pixel*Frame) : 0.208Stream size : 376 MiB (78%)Writing library : XviD 73Encoded date : UTC 2015-11-16 11:50:14Tagged date : UTC 2015-11-16 11:50:25

AudioID : 101Format : AACFormat/Info : Advanced Audio CodecFormat profile : LCCodec ID : 40Duration : 1h 49mnBit rate mode : VariableBit rate : 128 KbpsMaximum bit rate : 188 KbpsChannel(s) : 2 channelsChannel positions : Front: L RSampling rate : 48.0 KHzCompression mode : LossyStream size : 100 MiB (21%)Encoded date : UTC 2015-11-16 11:50:22Tagged date : UTC 2015-11-16 11:50:25

Other #1ID : 2Type : Object descriptionFormat : SystemCodec ID : 1Duration : 1s 0msEncoded date : UTC 2015-11-16 11:50:24Tagged date : UTC 2015-11-16 11:50:25

Other #2ID : 1Type : Scene descriptionFormat : System CoreCodec ID : 2Duration : 1s 0msEncoded date : UTC 2015-11-16 11:50:24Tagged date : UTC 2015-11-16 11:50:25


Трекер:  [ 18-Ноя-2015 22:00 ]

  

Скачать .torrent

Размер .torrent файла 19 KB


Размер: 480 MB
Хэш (hash) релиза: 6b482d56e0ea9cbecd08bc4b704ecd3b90c013df

Еще никто не оставлял запись к записи скачать торрент [VIDEO] Путешествие на Запад: Покорение демонов Journey to the West: Conquering the Demons . Будь первым!

!Обратная связь