Mira Sorvino | tarubar jad so katiya | Família

Скачать через торрент [VIDEO] Черная гадюка Blackadder бесплатно русская версия torrent активатор

Статистика раздачи
Размер:  7.14 GB   |    Зарегистрирован:  2 года 7 месяцев   |    .torrent скачан:  40 раз   |   
Раздают:  1  
   
загрузка...
 
Автор Сообщение

Galfimbul

avatar Galfimbul



Черная гадюка / Blackadder

Все четыре сезона + Бонусы
Год выпуска: 1983-1999Год выпуска (ремастированнового издания): 2009
Страна: Великобритания
Жанр: ситуационная комедия
Продолжительность: 24 серии в среднем по 30мин, специальные выпуски 15мин + 43мин + 30мин + 62мин
Перевод №1: Профессиональный (многоголосый, закадровый) РТР
Перевод №2: Профессиональный (двухголосый, закадровый) НСТ
Перевод №3: Любительский (одноголосый, закадровый) студия BBC Saint-Petersburg
Cубтитры: нет
Режиссеры: Мартин Шэрдлоу / Martin Shardlow, Джофф Познер / Geoff Posner, Мэнди Флетчер / Mandie Fletcher, Мэнди Флетчер / Mandie Fletcher, Ричард Боден / Richard Boden
В главной роли: Роуэн Аткинсон, Тони Робинсон, Брайан Блессед, Тим МакИннерни, Хью Лоури, Стивен Фрай и другие . .
Описание: Путешествие сквозь века приглашает совершить исторический ситком канала BBC Saint-Petersburg «Черная гадюка» (The Blackadder). Актер Роуэн Аткинсон, перевоплощаясь то в одного, то в другого персонажа, из сезона в сезон переносится из Средневековья к временам Первой Мировой войны, попутно попадая в разнообразные приключения. Компанию ему составляет его верный подручный Болдрик, в роли которого выступил Тони Робинсон.

[i]В 2000 году сериал попал под номером 16 в список «100 Величайших британских телевизионных программ», составленный Британским институтом кинематографии. В 2004 году в результате телевизионного опроса «Чёрная Гадюка» заняла второе место в номинации «Лучшая британская комедия положений». Первое место, кстати, заняли Дураки и лошади (Дуракам везёт) - Only Fools And Horses

Сведения:
Первый сезон.Отпетый негодяй и сквалыга, Блэкэдер странствует по британской истории, по возможности вредя соотечественникам и стараясь оказаться в самом неподходящем месте в самое неподходящее время. В этом ему помогает верные подручные лорд Перси и оруженосец Болдрик.
Во втором сезоне Эдмунд Блакаддер — выдающийся придворный при дворе тупой Королевы Элизабет I. Учтивому и умному Эдмунду снова помогают его теперь уже идиотский, но все еще безобразный слуга Болдрик и слабоумный лорд Перси. Его главный конкурент — льстивый лорд Мелкэрт.
Третий сезон.В период регенства, абсолютно сумасшедший сын безумного короля Георга III, Джордж, был принцем-регентом Уэльса. Вульгарный и шокирующий тугодум, Джордж транжирит казну, и он был бы несомненно мёртв, если бы не его чёрствый, злой, едкий, высокомерный и циничный дворецкий, Эдмунд «Чёрная Змеюка», эсквайр. «Чёрная Змеюка» бывший аристократ, который потерял своё семейное состояние и понижен до слуги, полоный отвращения к своему служению душевнобольному. Болдрик, его грязный, вонючий, невежественный слуга, и миссис Миггинс — раздражающе неунывающая владелица кафе также не понимают большинство издёвок «Чёрной Змеюки»

В четвертом сезоне Блэкедер и его друзья оказываются в пекле Первой мировой войны, где продолжают вести себя, как подобает истинным проходимцам…
Релиз группы
Качество:DVDRip / [url=...4976017]рип с DVDRemux[/url] Формат: MP4 Видео кодек: H.264 Аудио кодек: AAC Видео: 464x360 AR: 1.289 1080 kbps 25 fps
Видео (Серии) Baldrick's Video Diary и Back & Forth: 640х360 AR: 16:9 1080 kbps 25 fps
Аудио: (Русский) 2ch 48 kHz 128 kbps [РТР (кроме 2x02 Head.В 2x02 Head (перевод НСТ)] Аудио: (Бонусы) переводы BBC Saint-Petersburg и НСТ
Перевод на бонусы:
На серию Чёрная Гадюка: годы роялистов (Blackadder: The Cavalier Years) перевод студии BBC Saint-Petersburg
На серию Чёрная Гадюка: Туда и обратно (Blackadder: Back & Forth) перевод канала НСТ.
На серию Видео дневник Болдрика (Baldrick's Video Diary) перевод канала НСТ
На серию Рождественская песнь Чёрной Гадюки (Blackadder’s Christmas Carol) перевод канала НСТ.
...last pass...

x264.exe: --pass 2 --bitrate 1080 --preset medium --profile high --level 4.1 --ref 7 --aq-strength 0.7 --deblock -1:-1 --merange 48 --bframes 5 --direct auto --b-adapt 2 --no-fast-pskip --no-dct-decimate --psy-rd 1.10:0.00 --partitions all --subme 11 --me umh --colorprim bt470bg --transfer bt470bg --colormatrix bt470bg --sar 1:1 --stats "D:\XVID4PSP 5\Temp\0127.log" --output "D:\XVID4PSP 5\Temp\0127.264" "D:\XVID4PSP 5\Temp\0127.avs"

avs [info]: 464x360p 1:1 @ 25/1 fps (cfr)
x264 [info]: using SAR=1/1
x264 [info]: using cpu capabilities: MMX2 SSE2Fast SSSE3 SSE4.2 LZCNT
x264 [info]: profile High, level 4.1

x264 [info]: frame I:412 Avg QP:16.00 size: 32117
x264 [info]: frame P:11405 Avg QP:18.61 size: 12716
x264 [info]: frame B:38484 Avg QP:22.16 size: 2953
x264 [info]: consecutive B-frames: 1.5% 1.7% 8.4% 32.8% 24.7% 30.8%
x264 [info]: mb I I16..4: 5.9% 68.6% 25.6%
x264 [info]: mb P I16..4: 0.5% 6.5% 2.7% P16..4: 39.7% 24.8% 22.0% 2.1% 0.8% skip: 0.8%
x264 [info]: mb B I16..4: 0.0% 0.6% 0.3% B16..8: 39.3% 9.4% 3.3% direct: 6.3% skip:40.9% L0:37.2% L1:43.7% BI:19.1%
x264 [info]: 8x8 transform intra:67.3% inter:57.6%
x264 [info]: direct mvs spatial:96.5% temporal:3.5%
x264 [info]: coded y,uvDC,uvAC intra: 94.8% 87.6% 56.1% inter: 32.3% 36.4% 12.5%
x264 [info]: i16 v,h,dc,p: 31% 20% 8% 42%
x264 [info]: i8 v,h,dc,ddl,ddr,vr,hd,vl,hu: 15% 7% 3% 9% 14% 14% 13% 12% 12%
x264 [info]: i4 v,h,dc,ddl,ddr,vr,hd,vl,hu: 13% 7% 2% 9% 15% 14% 14% 12% 14%
x264 [info]: i8c dc,h,v,p: 40% 24% 20% 16%
x264 [info]: Weighted P-Frames: Y:8.8% UV:1.9%
x264 [info]: ref P L0: 44.9% 14.7% 19.8% 5.8% 6.0% 3.7% 4.4% 0.6% 0.0%
x264 [info]: ref B L0: 84.3% 9.3% 3.0% 1.8% 0.9% 0.7%
x264 [info]: ref B L1: 96.2% 3.8%
x264 [info]: kb/s:1081.05
encoded 50301 frames, 30.25 fps, 1081.05 kb/s

GeneralComplete name : D:\Torrents\Blackadder - Черная гадюка.1983-1999 [act.Rowan Atkinson].х264.640х.rip by Frost O.S\1x01 The Foretelling.mp4Format : MPEG-4Format profile : Base MediaCodec ID : isomFile size : 292 MiBDuration : 33mn 32sOverall bit rate mode : VariableOverall bit rate : 1 217 KbpsSeason : 1Part : 1Part/Position : 1Track name/Position : 1ContentType : Short FilmEncoded date : UTC 2015-11-18 12:50:48Tagged date : UTC 2015-11-18 12:50:58Writing application : MkvToMp4 version: 0.224 (x64)

VideoID : 1Format : AVCFormat/Info : Advanced Video CodecFormat profile : [email protected] settings, CABAC : YesFormat settings, ReFrames : 7 framesCodec ID : avc1Codec ID/Info : Advanced Video CodingDuration : 33mn 32sBit rate : 1 080 KbpsMaximum bit rate : 5 477 KbpsWidth : 464 pixelsHeight : 360 pixelsDisplay aspect ratio : 1.289Frame rate mode : ConstantFrame rate : 25.000 fpsColor space : YUVChroma subsampling : 4:2:0Bit depth : 8 bitsScan type : ProgressiveBits/(Pixel*Frame) : 0.259Stream size : 259 MiB (89%)Writing library : x264 core 130 r2273 b3065e6Encoding settings : cabac=1 / ref=7 / deblock=1:-1:-1 / analyse=0x3:0x133 / me=umh / subme=9 / psy=1 / psy_rd=1.10:0.00 / mixed_ref=1 / me_range=48 / chroma_me=1 / trellis=1 / 8x8dct=1 / cqm=0 / deadzone=21,11 / fast_pskip=0 / chroma_qp_offset=-2 / threads=3 / lookahead_threads=1 / sliced_threads=0 / nr=0 / decimate=0 / interlaced=0 / bluray_compat=0 / constrained_intra=0 / bframes=5 / b_pyramid=2 / b_adapt=2 / b_bias=0 / direct=3 / weightb=1 / open_gop=0 / weightp=2 / keyint=250 / keyint_min=25 / scenecut=40 / intra_refresh=0 / rc_lookahead=40 / rc=2pass / mbtree=1 / bitrate=1080 / ratetol=1.0 / qcomp=0.60 / qpmin=0 / qpmax=69 / qpstep=4 / cplxblur=20.0 / qblur=0.5 / ip_ratio=1.40 / aq=1:0.70Language : EnglishEncoded date : UTC 2015-11-18 12:50:48Tagged date : UTC 2015-11-18 12:50:50Color range : LimitedColor primaries : BT.601 PALTransfer characteristics : BT.470 System B, BT.470 System GMatrix coefficients : BT.601

AudioID : 2Format : AACFormat/Info : Advanced Audio CodecFormat profile : LCCodec ID : 40Duration : 33mn 32sBit rate mode : VariableBit rate : 128 KbpsMaximum bit rate : 143 KbpsChannel(s) : 2 channelsChannel positions : Front: L RSampling rate : 48.0 KHzCompression mode : LossyStream size : 30.7 MiB (11%)Language : RussianEncoded date : UTC 2015-11-18 12:50:50Tagged date : UTC 2015-11-18 12:50:50


...last pass...

x264.exe: --pass 2 --bitrate 1080 --preset medium --profile high --level 4.1 --ref 7 --aq-strength 0.7 --deblock -1:-1 --merange 48 --bframes 5 --direct auto --b-adapt 2 --no-fast-pskip --no-dct-decimate --psy-rd 1.10:0.00 --qcomp 0.65 --partitions all --subme 11 --me umh --colorprim bt470bg --transfer bt470bg --colormatrix bt470bg --sar 1:1 --stats "D:\XVID4PSP 5\Temp\0153.log" --output "D:\XVID4PSP 5\Temp\0153.264" "D:\XVID4PSP 5\Temp\0153.avs"

avs [info]: 640x360p 1:1 @ 25/1 fps (cfr)
x264 [info]: using SAR=1/1
x264 [info]: using cpu capabilities: MMX2 SSE2Fast SSSE3 SSE4.2 LZCNT
x264 [info]: profile High, level 4.1

x264 [info]: frame I:400 Avg QP:20.13 size: 36794
x264 [info]: frame P:10177 Avg QP:22.99 size: 11744
x264 [info]: frame B:34024 Avg QP:26.14 size: 3130
x264 [info]: consecutive B-frames: 2.7% 2.6% 6.8% 25.8% 19.2% 42.9%
x264 [info]: mb I I16..4: 11.8% 55.6% 32.6%
x264 [info]: mb P I16..4: 1.1% 6.2% 2.3% P16..4: 44.5% 17.8% 18.6% 1.4% 0.6% skip: 7.7%
x264 [info]: mb B I16..4: 0.1% 0.8% 0.3% B16..8: 38.2% 8.1% 2.8% direct: 4.4% skip:45.3% L0:40.6% L1:44.9% BI:14.5%
x264 [info]: 8x8 transform intra:63.6% inter:61.6%
x264 [info]: direct mvs spatial:96.3% temporal:3.7%
x264 [info]: coded y,uvDC,uvAC intra: 85.2% 79.5% 55.3% inter: 23.9% 26.8% 10.3%
x264 [info]: i16 v,h,dc,p: 36% 30% 7% 27%
x264 [info]: i8 v,h,dc,ddl,ddr,vr,hd,vl,hu: 14% 6% 2% 10% 16% 15% 14% 12% 11%
x264 [info]: i4 v,h,dc,ddl,ddr,vr,hd,vl,hu: 13% 10% 2% 9% 15% 14% 14% 11% 12%
x264 [info]: i8c dc,h,v,p: 40% 24% 20% 17%
x264 [info]: Weighted P-Frames: Y:5.1% UV:2.3%
x264 [info]: ref P L0: 47.8% 14.2% 18.2% 5.6% 5.5% 3.8% 4.4% 0.4% 0.0%
x264 [info]: ref B L0: 78.7% 11.3% 5.1% 2.8% 1.4% 0.8%
x264 [info]: ref B L1: 93.9% 6.1%
x264 [info]: kb/s:1079.48
encoded 44601 frames, 26.18 fps, 1079.48 kb/s

GeneralComplete name : D:\Torrents\Blackadder - Черная гадюка.1983-1999 [act.Rowan Atkinson].х264.640х.rip by Frost O.S\Baldrick's Video Diary.1999.mp4Format : MPEG-4Format profile : Base MediaCodec ID : isomFile size : 258 MiBDuration : 29mn 44sOverall bit rate mode : VariableOverall bit rate : 1 215 KbpsMovie name : Baldrick's Video Diary 1999ContentType : Short FilmEncoded date : UTC 2015-11-18 13:07:07Tagged date : UTC 2015-11-18 13:07:16Writing application : MkvToMp4 version: 0.224 (x64)

VideoID : 1Format : AVCFormat/Info : Advanced Video CodecFormat profile : [email protected] settings, CABAC : YesFormat settings, ReFrames : 7 framesCodec ID : avc1Codec ID/Info : Advanced Video CodingDuration : 29mn 44sBit rate : 1 080 KbpsMaximum bit rate : 5 762 KbpsWidth : 640 pixelsHeight : 360 pixelsDisplay aspect ratio : 16:9Frame rate mode : ConstantFrame rate : 25.000 fpsColor space : YUVChroma subsampling : 4:2:0Bit depth : 8 bitsScan type : ProgressiveBits/(Pixel*Frame) : 0.188Stream size : 230 MiB (89%)Writing library : x264 core 130 r2273 b3065e6Encoding settings : cabac=1 / ref=7 / deblock=1:-1:-1 / analyse=0x3:0x133 / me=umh / subme=9 / psy=1 / psy_rd=1.10:0.00 / mixed_ref=1 / me_range=48 / chroma_me=1 / trellis=1 / 8x8dct=1 / cqm=0 / deadzone=21,11 / fast_pskip=0 / chroma_qp_offset=-2 / threads=3 / lookahead_threads=1 / sliced_threads=0 / nr=0 / decimate=0 / interlaced=0 / bluray_compat=0 / constrained_intra=0 / bframes=5 / b_pyramid=2 / b_adapt=2 / b_bias=0 / direct=3 / weightb=1 / open_gop=0 / weightp=2 / keyint=250 / keyint_min=25 / scenecut=40 / intra_refresh=0 / rc_lookahead=40 / rc=2pass / mbtree=1 / bitrate=1080 / ratetol=1.0 / qcomp=0.65 / qpmin=0 / qpmax=69 / qpstep=4 / cplxblur=20.0 / qblur=0.5 / ip_ratio=1.40 / aq=1:0.70Language : EnglishEncoded date : UTC 2015-11-18 13:07:07Tagged date : UTC 2015-11-18 13:07:09Color range : LimitedColor primaries : BT.601 PALTransfer characteristics : BT.470 System B, BT.470 System GMatrix coefficients : BT.601

AudioID : 2Format : AACFormat/Info : Advanced Audio CodecFormat profile : LCCodec ID : 40Duration : 29mn 42sBit rate mode : VariableBit rate : 128 KbpsMaximum bit rate : 143 KbpsChannel(s) : 2 channelsChannel positions : Front: L RSampling rate : 48.0 KHzCompression mode : LossyStream size : 27.1 MiB (10%)Language : RussianEncoded date : UTC 2015-11-18 13:07:08Tagged date : UTC 2015-11-18 13:07:09

Особая благодарность пользователю evisa за выложенные исходники


Трекер:  [ 18-Ноя-2015 22:00 ]

  

Скачать .torrent

Размер .torrent файла 20 KB


Размер: 7.14 GB
Хэш (hash) релиза: ad97e502268fdc7fb6d803321300222624863d98

Еще никто не оставлял запись к записи скачать торрент [VIDEO] Черная гадюка Blackadder . Будь первым!

!Обратная связь