Il giardino dei cosacchi | Insidious La última llave (2017) | Pedag VIVA MINI Insole beige QrF4pskB

Скачать через торрент [VIDEO] Хитико: Самый верный друг Hachi: A Dogs Tale бесплатно русская версия torrent активатор

Статистика раздачи
Размер:  1.19 GB   |    Зарегистрирован:  2 года 8 месяцев   |    .torrent скачан:  7 раз   |   
Раздают:  1  
   
загрузка...
 
Автор Сообщение

Galfimbul

avatar Galfimbul


Хатико: Самый верный друг / Hachi: A Dog's Tale
«Подлинная история веры, преданности и вечной любви»

Год выпуска: 2009
Страна: США, Великобритания
Жанр: драма, семейный
Продолжительность: 01:33:14
Перевод: Профессиональный (Полное дублирование)
Cубтитры: нет
Режиссер: Лассе Халльстрём / Lasse Hallström
В ролях: Ричард Гир / Richard Gere, Джоан Аллен / Joan Allen, Кэри-Хироюки Тагава / Cary-Hiroyuki Tagawa, Сара Ремер / Sarah Roemer, Джейсон Александр / Jason Alexander, Эрик Авари / Erick Avari, Давиния МакФэдден / Davenia McFadden, Робби Саблетт / Robbie Sublett, Роб Деньян / Rob Degnan, Донна Сорбелло / Donna Sorbello, Фрэнк С. Аронсон / Frank S. Aronson, Трой Доэрти / Troy Doherty, Йен Шерман / Ian Sherman и другие .
Описание: В основе сюжета — реальная история, случившаяся в Японии и потрясшая весь мир. Однажды, возвращаясь с работы, профессор колледжа нашел на вокзале симпатичного щенка породы акита-ину. Профессор и Хатико стали верными друзьями. Каждый день пес провожал и встречал Профессора на вокзале. И даже потеря хозяина не остановила пса в его надежде, что друг вернется.
Релиз группы
Качество: HDRip / рип BDRip 720p Формат: MP4 Видео кодек: H.264 Аудио кодек: AAC
Видео: 960x520 AR:1.85 1700 kbps 23.976 fps Аудио: [Русский] 2ch 48 kHz 128 kbps - [Dub]
ОбщееПолное имя : D:\Torrents\Hachi A Dog's Tale.2009.HDRip.960x.mp4Формат : MPEG-4Профиль формата : Base MediaИдентификатор кодека : isomРазмер файла : 1,19 ГбайтПродолжительность : 1 ч. 33 м.Режим общего битрейта : ПеременныйОбщий поток : 1831 Кбит/секДата кодирования : UTC 2014-07-09 12:14:00Дата пометки : UTC 2014-07-09 12:14:00

ВидеоИдентификатор : 1Формат : AVCФормат/Информация : Advanced Video CodecПрофиль формата : [email protected]Параметр CABAC формата : ДаПараметр ReFrames формата : 4 кадраИдентификатор кодека : avc1Идентификатор кодека/Информация : Advanced Video CodingПродолжительность : 1 ч. 33 м.Битрейт : 1700 Кбит/секМаксимальный битрейт : 15,9 Мбит/секШирина : 960 пикселейВысота : 520 пикселейСоотношение сторон : 1,85:1Режим частоты кадров : ПостоянныйЧастота кадров : 23,976 кадра/секЦветовое пространство : YUVСубдискретизация насыщенности : 4:2:0Битовая глубина : 8 битТип развёртки : ПрогрессивнаяБит/(Пиксели*Кадры) : 0.142Размер потока : 1,11 Гбайт (93%)Библиотека кодирования : x264 core 130 r2273 b3065e6Настройки программы : cabac=1 / ref=3 / deblock=1:-1:-1 / analyse=0x3:0x113 / me=hex / subme=7 / psy=1 / psy_rd=1.00:0.15 / mixed_ref=1 / me_range=16 / chroma_me=1 / trellis=1 / 8x8dct=1 / cqm=0 / deadzone=21,11 / fast_pskip=1 / chroma_qp_offset=-3 / threads=3 / lookahead_threads=1 / sliced_threads=0 / nr=0 / decimate=1 / interlaced=0 / bluray_compat=0 / constrained_intra=0 / bframes=3 / b_pyramid=2 / b_adapt=1 / b_bias=0 / direct=3 / weightb=1 / open_gop=0 / weightp=2 / keyint=250 / keyint_min=23 / scenecut=40 / intra_refresh=0 / rc_lookahead=40 / rc=2pass / mbtree=1 / bitrate=1700 / ratetol=1.0 / qcomp=0.60 / qpmin=0 / qpmax=69 / qpstep=4 / cplxblur=20.0 / qblur=0.5 / ip_ratio=1.40 / aq=1:1.00Дата кодирования : UTC 2014-07-09 12:14:00Дата пометки : UTC 2014-07-09 12:14:51

АудиоИдентификатор : 2Формат : AACФормат/Информация : Advanced Audio CodecПрофиль формата : LCИдентификатор кодека : 40Продолжительность : 1 ч. 33 м.Вид битрейта : ПеременныйБитрейт : 128 Кбит/секМаксимальный битрейт : 249 Кбит/секКаналы : 2 каналаРасположение каналов : Front: L RЧастота : 48,0 КГцМетод сжатия : С потерямиРазмер потока : 85,3 Мбайт (7%)Дата кодирования : UTC 2014-07-09 12:14:36Дата пометки : UTC 2014-07-09 12:14:51


Трекер:  [ 05-Ноя-2015 16:30 ]

  

Скачать .torrent

Размер .torrent файла 12 KB


Размер: 1.19 GB
Хэш (hash) релиза: 9040091defeb5539b3a4b5c3fa9fbc211467b4a6

Еще никто не оставлял запись к записи скачать торрент [VIDEO] Хитико: Самый верный друг Hachi: A Dogs Tale . Будь первым!

!Обратная связь