Episode 2
Watch movie

Скачать через торрент [MULT] Ночь перед Рождеством бесплатно русская версия torrent активатор

Статистика раздачи
Размер:  400 MB   |    Зарегистрирован:  2 года 5 месяцев   |    .torrent скачан:  10 раз   |   
Раздают:  1  
   
загрузка...
 
Автор Сообщение

Galfimbul

avatar Galfimbul


Ночь перед Рождеством

Год выпуска: 1951
Страна: СССР
Жанр: мультфильм, мюзикл, приключения, семейный
Продолжительность: 00:45:58
Перевод: Профессиональный (дублированный)
Cубтитры: нет
Режиссеры: Зинаида Брумберг , Валентина Брумберг
Роли озвучивали: Владимир Грибков, Вера Марецкая, Лилия Гриценко, Николай Гриценко, Михаил Яншин и другие .
Описание: Красавец-кузнец Вакула, влюбленный в прекрасную Оксану, не остановился ни перед чем: оседлал самого черта, долетел на нем до стольного города Санкт-Петебурга, добрался до самой императрицы… И все это для того, чтобы заслужить любовь капризной красавицы.
Доп. информация:
Релиз группы
Качество: DVDRip / [url=...2883755]рип с DVD5 Крупный план[/url]Формат: MP4 Видео кодек: H.264 Аудио кодек: AACВидео: 464x360 AR: 1.289 1080 kbps, 25 fps Аудио: 2 ch, 48 kHz, 128 kbps
Доп. информация: Лицензионное (бюджетное) издание "Крупный план", производство ФГУП "Киностудия "Союзмультфильм"
...last pass...

x264.exe: --pass 2 --bitrate 1080 --preset medium --profile high --level 4.1 --ref 11 --aq-strength 0.9 --deblock -2:-2 --merange 48 --bframes 9 --direct auto --b-adapt 2 --trellis 0 --no-fast-pskip --no-dct-decimate --psy-rd 0.50:0.00 --partitions all --subme 11 --me umh --colorprim bt470bg --transfer bt470bg --colormatrix bt470bg --sar 1:1 --stats "D:\VTS_01_1_002.log" --output "D:\VTS_01_1_002.mp4" "D:\XVID4PSP 5\Temp\0098.avs"

avs [info]: 464x360p 1:1 @ 25/1 fps (cfr)
x264 [info]: using SAR=1/1
x264 [info]: using cpu capabilities: MMX2 SSE2Fast SSSE3 SSE4.2 LZCNT
x264 [info]: profile High, level 4.1

x264 [info]: frame I:410 Avg QP:16.21 size: 27636
x264 [info]: frame P:15823 Avg QP:18.70 size: 10568
x264 [info]: frame B:52719 Avg QP:22.12 size: 3677
x264 [info]: consecutive B-frames: 1.5% 2.3% 9.3% 36.8% 21.1% 16.3% 6.5% 3.6% 2.1% 0.6%
x264 [info]: mb I I16..4: 10.8% 53.1% 36.1%
x264 [info]: mb P I16..4: 2.9% 9.5% 3.2% P16..4: 44.2% 19.8% 15.7% 1.7% 0.6% skip: 2.3%
x264 [info]: mb B I16..4: 0.5% 2.7% 1.4% B16..8: 35.2% 12.4% 4.0% direct: 8.4% skip:35.4% L0:47.5% L1:40.0% BI:12.4%
x264 [info]: 8x8 transform intra:59.8% inter:44.2%
x264 [info]: direct mvs spatial:96.8% temporal:3.2%
x264 [info]: coded y,uvDC,uvAC intra: 84.8% 74.3% 44.7% inter: 28.7% 26.4% 7.2%
x264 [info]: i16 v,h,dc,p: 36% 23% 12% 29%
x264 [info]: i8 v,h,dc,ddl,ddr,vr,hd,vl,hu: 8% 12% 8% 8% 12% 8% 16% 8% 19%
x264 [info]: i4 v,h,dc,ddl,ddr,vr,hd,vl,hu: 11% 10% 7% 8% 12% 9% 14% 9% 19%
x264 [info]: i8c dc,h,v,p: 26% 36% 19% 18%
x264 [info]: Weighted P-Frames: Y:57.7% UV:43.4%
x264 [info]: ref P L0: 36.9% 11.4% 12.6% 8.2% 6.3% 6.0% 4.9% 3.4% 2.9% 2.7% 2.5% 1.9% 0.3%
x264 [info]: ref B L0: 60.0% 13.6% 7.2% 4.7% 3.8% 3.5% 2.9% 2.2% 1.3% 0.8%
x264 [info]: ref B L1: 91.0% 9.0%
x264 [info]: kb/s:1080.16

x264 [total]: encoded 68952 frames, 22.52 fps, 1080.16 kb/s
ОбщееПолное имя : D:\Torrents\Noch pered rozdestvom.1951.DVDRip.x264.640x.rip by Frost O.S.mp4Формат : MPEG-4Профиль формата : Base MediaИдентификатор кодека : isomРазмер файла : 400 МбайтПродолжительность : 45 м.Режим общего битрейта : ПеременныйОбщий поток : 1216 Кбит/секНазвание фильма : Noch pered rozdestvom 1951 DVDRip x264 640x rip by Frost O SЖанр : AnimationТип содержимого : Short FilmДата кодирования : UTC 2015-11-05 11:41:20Дата пометки : UTC 2015-11-05 11:41:37Программа кодирования : MkvToMp4 version: 0.224 (x64)Обложка : YesПримечание : rip by Frost O.SLongDescription : Красавец-кузнец Вакула, влюбленный в прекрасную Оксану, не остановился ни перед чем: оседлал самого черта, долетел на нем до стольного города Санкт-Петебурга, добрался до самой императрицы… И все это для того, чтобы заслужить любовь капризной красавицы.ContentRating : ru-movie|6+|150|

ВидеоИдентификатор : 1Формат : AVCФормат/Информация : Advanced Video CodecПрофиль формата : [email protected]Параметр CABAC формата : ДаПараметр ReFrames формата : 11 кадровИдентификатор кодека : avc1Идентификатор кодека/Информация : Advanced Video CodingПродолжительность : 45 м.Битрейт : 1080 Кбит/секМаксимальный битрейт : 5574 Кбит/секШирина : 464 пикселяВысота : 360 пикселейСоотношение сторон : 1,289Режим частоты кадров : ПостоянныйЧастота кадров : 25,000 кадров/секЦветовое пространство : YUVСубдискретизация насыщенности : 4:2:0Битовая глубина : 8 битТип развёртки : ПрогрессивнаяБит/(Пиксели*Кадры) : 0.259Размер потока : 355 Мбайт (89%)Библиотека кодирования : x264 core 130 r2273 b3065e6Настройки программы : cabac=1 / ref=11 / deblock=1:-2:-2 / analyse=0x3:0x133 / me=umh / subme=9 / psy=1 / psy_rd=0.50:0.00 / mixed_ref=1 / me_range=48 / chroma_me=1 / trellis=0 / 8x8dct=1 / cqm=0 / deadzone=21,11 / fast_pskip=0 / chroma_qp_offset=-2 / threads=3 / lookahead_threads=1 / sliced_threads=0 / nr=0 / decimate=0 / interlaced=0 / bluray_compat=0 / constrained_intra=0 / bframes=9 / b_pyramid=2 / b_adapt=2 / b_bias=0 / direct=3 / weightb=1 / open_gop=0 / weightp=2 / keyint=250 / keyint_min=25 / scenecut=40 / intra_refresh=0 / rc_lookahead=40 / rc=2pass / mbtree=1 / bitrate=1080 / ratetol=1.0 / qcomp=0.60 / qpmin=0 / qpmax=69 / qpstep=4 / cplxblur=20.0 / qblur=0.5 / ip_ratio=1.40 / aq=1:0.90Язык : EnglishДата кодирования : UTC 2015-11-05 11:41:20Дата пометки : UTC 2015-11-05 11:41:24Цветовой диапазон : LimitedОсновные цвета : BT.601 PALХарактеристики трансфера : BT.470 System B, BT.470 System GКоэффициенты матрицы : BT.601

АудиоИдентификатор : 2Формат : AACФормат/Информация : Advanced Audio CodecПрофиль формата : LCИдентификатор кодека : 40Продолжительность : 45 м.Вид битрейта : ПеременныйБитрейт : 128 Кбит/секМаксимальный битрейт : 130 Кбит/секКаналы : 2 каналаРасположение каналов : Front: L RЧастота : 48,0 КГцМетод сжатия : С потерямиРазмер потока : 42,1 Мбайт (11%)Язык : RussianДата кодирования : UTC 2015-11-05 11:41:23Дата пометки : UTC 2015-11-05 11:41:24


Трекер:  [ 05-Ноя-2015 16:30 ]

  

Скачать .torrent

Размер .torrent файла 16 KB


Размер: 400 MB
Хэш (hash) релиза: dec1c0eb46f19595be92cc3d5bc659b5eb38fbda

Еще никто не оставлял запись к записи скачать торрент [MULT] Ночь перед Рождеством . Будь первым!

!Обратная связь