Allein gegen die Mafia | Моя жизнь (2018) WEB-DLRip-AVC от ivanes20031987 | iTunes | Heartland CA

Скачать через торрент [VIDEO] Спортлото-82 бесплатно русская версия torrent активатор

Статистика раздачи
Размер:  775 MB   |    Зарегистрирован:  2 года 8 месяцев   |    .torrent скачан:  17 раз   |   
Раздают:  1  
   
загрузка...
 
Автор Сообщение

Galfimbul

avatar Galfimbul


Спортлото-82

Год выпуска: 1982
Страна: СССР
Жанр: комедия, приключения
Продолжительность: 01:29:07
Перевод: Не требуется
Cубтитры: нет
Режиссер: Леонид Гайдай
В ролях: Альгис Арлаускас, Светлана Аманова, Михаил Пуговкин, Михаил Кокшенов, Денис Кмит, Нина Гребешкова, Андрей Толшин, Борислав Брондуков, Луиза Мосендз, Сергей Филиппов, Виктор Уральский, Вера Ивлева
Описание: На один из билетов «Спортлото» выпадает крупный выигрыш. Однако билет оказывается потерянным. В поисках его герои попадают во множество занятных переделок, над которыми зритель веселится от души…
Релиз группы

Занимает по посещаемости 25-е место среди отечественных фильмов за всю историю советского кинопроката.
Игровая комбинация, выбранная героиней фильма (1,2,3,4,5,6), была представлена зрителю, как «самая редкая» или «невероятная». На самом деле, с точки зрения комбинаторики, эта комбинация такая же обычная, как и любая другая, она имеет такие же шансы на выпадение, как и любая другая комбинация.
Большой прямоугольный камень, который обходит Сан Саныч и орех, с которого Никулин бросался грушами («Орех Никулина») из другого фильма Гайдая — «Кавказская пленница, или Новые приключения Шурика»; находятся на расстоянии нескольких метров друг от друга.

Качество: DVDRip / [i][url=...36024]DVD5 Крупный План[/url]
Формат: MP4
Видео кодек: H.264
Аудио кодек: AAC
Видео: 640x360 AR :16/9 1080 kbps 25fps
Аудио: AAC 2ch 48 Hkz 128 kbps
[/i]
...last pass...

x264.exe: --pass 2 --bitrate 1080 --preset medium --profile high --level 4.1 --ref 10 --aq-strength 0.7 --deblock 1:1 --merange 48 --bframes 9 --direct auto --b-adapt 2 --no-fast-pskip --no-dct-decimate --psy-rd 1.20:0.00 --qcomp 0.70 --partitions all --subme 11 --me umh --rc-lookahead 60 --colorprim bt470bg --transfer bt470bg --colormatrix bt470bg --sar 1:1 --stats "D:\VTS_01_1_001.log" --output "D:\VTS_01_1_001.mp4" "D:\XVID4PSP 5\Temp\0069.avs"

avs [info]: 640x360p 1:1 @ 25/1 fps (cfr)
x264 [info]: using SAR=1/1
x264 [info]: using cpu capabilities: MMX2 SSE2Fast SSSE3 SSE4.2 LZCNT
x264 [info]: profile High, level 4.1

x264 [info]: frame I:764 Avg QP:22.62 size: 32314
x264 [info]: frame P:26294 Avg QP:25.54 size: 11916
x264 [info]: frame B:106640 Avg QP:27.71 size: 3601
x264 [info]: consecutive B-frames: 1.3% 1.7% 4.3% 16.1% 13.7% 46.3% 8.3% 4.3% 2.8% 1.2%
x264 [info]: mb I I16..4: 5.7% 74.0% 20.3%
x264 [info]: mb P I16..4: 0.9% 11.6% 1.9% P16..4: 49.9% 18.5% 15.0% 0.6% 0.2% skip: 1.5%
x264 [info]: mb B I16..4: 0.1% 1.8% 0.3% B16..8: 46.6% 8.7% 2.7% direct: 5.8% skip:34.1% L0:45.3% L1:45.6% BI: 9.1%
x264 [info]: 8x8 transform intra:80.5% inter:71.2%
x264 [info]: direct mvs spatial:98.1% temporal:1.9%
x264 [info]: coded y,uvDC,uvAC intra: 91.2% 70.7% 32.6% inter: 32.2% 37.3% 5.1%
x264 [info]: i16 v,h,dc,p: 26% 32% 9% 33%
x264 [info]: i8 v,h,dc,ddl,ddr,vr,hd,vl,hu: 9% 5% 2% 11% 18% 15% 17% 10% 12%
x264 [info]: i4 v,h,dc,ddl,ddr,vr,hd,vl,hu: 8% 7% 1% 9% 16% 15% 17% 12% 15%
x264 [info]: i8c dc,h,v,p: 37% 28% 20% 15%
x264 [info]: Weighted P-Frames: Y:40.7% UV:35.4%
x264 [info]: ref P L0: 44.3% 13.3% 13.7% 7.6% 5.3% 4.5% 3.7% 2.4% 2.1% 2.2% 0.9% 0.0%
x264 [info]: ref B L0: 73.9% 10.6% 5.3% 3.1% 2.3% 2.0% 1.6% 0.7% 0.4%
x264 [info]: ref B L1: 93.7% 6.3%
x264 [info]: kb/s:1080.05

x264 [total]: encoded 133698 frames, 14.71 fps, 1080.06 kb/s
Общее
Полное имя : D:\Torrents\Sportloto82.1982.DVDRip.x264.640x.rip by Frost O.S.mp4
Формат : MPEG-4
Профиль формата : Base Media
Идентификатор кодека : isom
Размер файла : 775 Мбайт
Продолжительность : 1 ч. 29 м.
Режим общего битрейта : Переменный
Общий поток : 1216 Кбит/сек
Название фильма : Sportloto82 1982 DVDRip x264 640x rip by Frost O S
Жанр : Horror
Тип содержимого : Short Film
Дата кодирования : UTC 2015-11-02 12:07:45
Дата пометки : UTC 2015-11-02 12:08:30
Программа кодирования : MkvToMp4 version: 0.224 (x64)
Обложка : Yes
Примечание : rip by Frost O.S
LongDescription : На один из билетов «Спортлото» выпадает крупный выигрыш. Однако билет оказывается потерянным. В поисках его герои попадают во множество занятных переделок, над которыми зритель веселится от души…
ContentRating : ru-movie|16+|375|

Видео
Идентификатор : 1
Формат : AVC
Формат/Информация : Advanced Video Codec
Профиль формата : [email protected]
Параметр CABAC формата : Да
Параметр ReFrames формата : 10 кадров
Идентификатор кодека : avc1
Идентификатор кодека/Информация : Advanced Video Coding
Продолжительность : 1 ч. 29 м.
Битрейт : 1080 Кбит/сек
Максимальный битрейт : 5477 Кбит/сек
Ширина : 640 пикселей
Высота : 360 пикселей
Соотношение сторон : 16:9
Режим частоты кадров : Постоянный
Частота кадров : 25,000 кадров/сек
Цветовое пространство : YUV
Субдискретизация насыщенности : 4:2:0
Битовая глубина : 8 бит
Тип развёртки : Прогрессивная
Бит/(Пиксели*Кадры) : 0.188
Размер потока : 689 Мбайт (89%)
Библиотека кодирования : x264 core 130 r2273 b3065e6
Настройки программы : cabac=1 / ref=10 / deblock=1:1:1 / analyse=0x3:0x133 / me=umh / subme=9 / psy=1 / psy_rd=1.20:0.00 / mixed_ref=1 / me_range=48 / chroma_me=1 / trellis=1 / 8x8dct=1 / cqm=0 / deadzone=21,11 / fast_pskip=0 / chroma_qp_offset=-2 / threads=3 / lookahead_threads=1 / sliced_threads=0 / nr=0 / decimate=0 / interlaced=0 / bluray_compat=0 / constrained_intra=0 / bframes=9 / b_pyramid=2 / b_adapt=2 / b_bias=0 / direct=3 / weightb=1 / open_gop=0 / weightp=2 / keyint=250 / keyint_min=25 / scenecut=40 / intra_refresh=0 / rc_lookahead=60 / rc=2pass / mbtree=1 / bitrate=1080 / ratetol=1.0 / qcomp=0.70 / qpmin=0 / qpmax=69 / qpstep=4 / cplxblur=20.0 / qblur=0.5 / ip_ratio=1.40 / aq=1:0.70
Язык : English
Дата кодирования : UTC 2015-11-02 12:07:45
Дата пометки : UTC 2015-11-02 12:08:05
Цветовой диапазон : Limited
Основные цвета : BT.601 PAL
Характеристики трансфера : BT.470 System B, BT.470 System G
Коэффициенты матрицы : BT.601

Аудио
Идентификатор : 2
Формат : AAC
Формат/Информация : Advanced Audio Codec
Профиль формата : LC
Идентификатор кодека : 40
Продолжительность : 1 ч. 29 м.
Вид битрейта : Переменный
Битрейт : 128 Кбит/сек
Максимальный битрейт : 132 Кбит/сек
Каналы : 2 канала
Расположение каналов : Front: L R
Частота : 48,0 КГц
Метод сжатия : С потерями
Размер потока : 81,6 Мбайт (11%)
Язык : Russian
Дата кодирования : UTC 2015-11-02 12:07:55
Дата пометки : UTC 2015-11-02 12:08:05


Трекер:  [ 05-Ноя-2015 13:00 ]

  

Скачать .torrent

Размер .torrent файла 15 KB


Размер: 775 MB
Хэш (hash) релиза: e863719838ee01ef1196ac2e72453249f54b6361

Еще никто не оставлял запись к записи скачать торрент [VIDEO] Спортлото-82 . Будь первым!

!Обратная связь