Bring Me the Horizon
Classicaloid

Скачать через торрент [VIDEO] Что мы делаем в темноте Реальные упыри бесплатно русская версия torrent активатор

Статистика раздачи
Размер:  1.41 GB   |    Зарегистрирован:  2 года 5 месяцев   |    .torrent скачан:  79 раз   |   
Раздают:  1  
   
загрузка...
 
Автор Сообщение

Galfimbul

avatar Galfimbul


Что мы делаем в темноте / What We Do in the Shadows
Год выпуска: 2014
Продолжительность: 01:25:31
Производство: Новая Зеландия, США
Жанр: комедия
Перевод: Профессиональный (дублированный) iTunes Russia
Субтитры: нет
Дата мировой премьеры: 19 января 2014
Режиссер: Джемейн Клемент, Таика Вайтити / Jemaine Clement, Taika Waititi
В ролях: Джемейн Клемент, Таика Вайтити, Джеки Ван Бик, Риз Дэрби, Бен Френшам, Марио Джая, Бен Харкорт, Айзек Херон, Коэн Холлоуэй, Джейсон Хойте, Аарон Джексон, Натан Майстер, Майк Миноуг
Описание фильма:
История жизни Виаго, Дикона и Владислава — трёх соседей и по совместительству бессмертных вампиров, которые всего лишь пытаются выжить в современном мире, где есть арендная плата, фейсконтроль в ночных клубах, губительный солнечный свет и другие неприятности.
Рейтинг:

Качество: BDRip [url=...5045508][Исходник BDRemux][/url] | Формат: MP4 | Видео кодек: H.264 | Аудио кодек: AAC
Видео: 1280x720 (AR 16:9), 2236 Kbps, 23.976 fps | Аудио: 128 Kbps, 48.0 KHz, 2ch, Stereo
General
Complete name : H:\Encode\What We Do in the Shadows (BDRip 1280x720 x264 AAC).mp4
Format : MPEG-4
Format profile : Base Media
Codec ID : isom
File size : 1.41 GiB
Duration : 1h 25mn
Overall bit rate mode : Variable
Overall bit rate : 2 368 Kbps
Encoded date : UTC 2015-11-01 17:00:51
Tagged date : UTC 2015-11-01 17:00:51

Video
ID : 1
Format : AVC
Format/Info : Advanced Video Codec
Format profile : [email protected]
Format settings, CABAC : Yes
Format settings, ReFrames : 8 frames
Codec ID : avc1
Codec ID/Info : Advanced Video Coding
Duration : 1h 25mn
Bit rate : 2 236 Kbps
Maximum bit rate : 12.5 Mbps
Width : 1 280 pixels
Height : 720 pixels
Display aspect ratio : 16:9
Frame rate mode : Constant
Frame rate : 23.976 fps
Color space : YUV
Chroma subsampling : 4:2:0
Bit depth : 8 bits
Scan type : Progressive
Bits/(Pixel*Frame) : 0.101
Stream size : 1.34 GiB (94%)
Writing library : x264 core 130 r2273 b3065e6
Encoding settings : cabac=1 / ref=8 / deblock=1:-1:-1 / analyse=0x3:0x133 / me=umh / subme=7 / psy=1 / psy_rd=1.00:0.10 / mixed_ref=1 / me_range=16 / chroma_me=1 / trellis=2 / 8x8dct=1 / cqm=0 / deadzone=21,11 / fast_pskip=0 / chroma_qp_offset=-3 / threads=4 / lookahead_threads=1 / sliced_threads=0 / nr=0 / decimate=1 / interlaced=0 / bluray_compat=0 / constrained_intra=0 / bframes=3 / b_pyramid=2 / b_adapt=2 / b_bias=0 / direct=3 / weightb=1 / open_gop=0 / weightp=2 / keyint=250 / keyint_min=23 / scenecut=40 / intra_refresh=0 / rc_lookahead=50 / rc=crf / mbtree=1 / crf=21.0 / qcomp=0.60 / qpmin=0 / qpmax=69 / qpstep=4 / ip_ratio=1.40 / aq=1:1.00
Encoded date : UTC 2015-11-01 17:00:51
Tagged date : UTC 2015-11-01 17:01:57

Audio
ID : 2
Format : AAC
Format/Info : Advanced Audio Codec
Format profile : LC
Codec ID : 40
Duration : 1h 25mn
Bit rate mode : Variable
Bit rate : 128 Kbps
Maximum bit rate : 186 Kbps
Channel(s) : 2 channels
Channel positions : Front: L R
Sampling rate : 48.0 KHz
Compression mode : Lossy
Delay relative to video : 83ms
Stream size : 78.1 MiB (5%)
Encoded date : UTC 2015-11-01 17:01:54
Tagged date : UTC 2015-11-01 17:01:57
x264 [info]: frame I:1133 Avg QP:17.45 size: 91847
x264 [info]: frame P:34370 Avg QP:20.68 size: 21671
x264 [info]: frame B:87536 Avg QP:22.01 size: 6686
x264 [info]: consecutive B-frames: 1.8% 2.8% 21.4% 74.0%
x264 [info]: mb I I16..4: 12.6% 73.9% 13.5%
x264 [info]: mb P I16..4: 1.7% 6.0% 0.4% P16..4: 54.1% 11.3% 14.6% 0.1% 0.1% skip:11.7%
x264 [info]: mb B I16..4: 0.1% 0.4% 0.0% B16..8: 50.1% 4.1% 0.6% direct: 2.6% skip:42.1% L0:45.3% L1:52.0% BI: 2.7%
x264 [info]: 8x8 transform intra:74.6% inter:73.9%
x264 [info]: direct mvs spatial:98.8% temporal:1.2%
x264 [info]: coded y,uvDC,uvAC intra: 66.2% 56.9% 20.7% inter: 16.5% 19.1% 0.4%
x264 [info]: i16 v,h,dc,p: 42% 15% 9% 34%
x264 [info]: i8 v,h,dc,ddl,ddr,vr,hd,vl,hu: 16% 12% 27% 6% 8% 8% 8% 7% 7%
x264 [info]: i4 v,h,dc,ddl,ddr,vr,hd,vl,hu: 21% 16% 16% 7% 10% 9% 8% 7% 6%
x264 [info]: i8c dc,h,v,p: 61% 16% 18% 5%
x264 [info]: Weighted P-Frames: Y:3.7% UV:1.4%
x264 [info]: ref P L0: 47.8% 11.8% 17.8% 6.5% 5.3% 4.2% 3.8% 2.2% 0.6% 0.0%
x264 [info]: ref B L0: 76.2% 11.5% 5.8% 2.6% 1.9% 1.3% 0.7%
x264 [info]: ref B L1: 92.9% 7.1%
x264 [info]: kb/s:2235.78

Релиз подготовлен:



Трекер:  [ 01-Ноя-2015 23:00 ]

  

Скачать .torrent

Размер .torrent файла 14 KB


Размер: 1.41 GB
Хэш (hash) релиза: 56b30e67e543b6e4588e88b5db41b3bd0be1fbaf

Торренты, похожие на [VIDEO] Что мы делаем в темноте Реальные упыри скачать торрент

Форум Название Автор Размер S L Добавлен
Видео (Фильмы/Клипы) ·· [VIDEO] Что мы делаем в темноте / Реальные упыри / What We Do in the Shadows (Джемейн Клемент / Jemaine Clement, Тайка Вайтити / Taika Waititi) [2014, комедия, ужасы, HDRip] [3GP, 320x] Dub iTunes Galfimbul 307500830293 MB 0 0 1496964677

02:31

9-Июн-17

Еще никто не оставлял запись к записи скачать торрент [VIDEO] Что мы делаем в темноте Реальные упыри . Будь первым!

!Обратная связь