Simpsons Shorts | Trickfilm | See You Up There

Скачать через торрент музыку Члены Школьного совета Seitokai Yakuindomo - 2010, FLAC бесплатно без регистрации torrent

Статистика раздачи
Размер:  902 MB   |    Зарегистрирован:  7 лет 3 месяца   |    .torrent скачан:  50 раз   |   
Раздают:  1  
   
загрузка...
 
Автор Сообщение

Dxe

avatar Dxe


Seitokai Yakuindomo
Члены Школьного совета
Жанр: OST
Год выпуска диска: 2010
Производитель диска: Япония
Аудио кодек: FLAC
Битрейт аудио: lossless
Общая продолжительность: 2:07:36
Продолжительность: 16:46

Треклист:
1. Yamato Nadeshiko Education
2. Jounetsu no Hana
3. Yamato Nadeshiko Education (off vocal ver.)
4. Jounetsu no Hana (off vocal ver.)

Код:

EAC 展開 ログファイル 日付: 21. 7月 2010, 22:25 for CD
トリプルブッキング / 大和撫子エデュケイション

使用ドライブ : PLEXTOR CD-R PREMIUM Adapter: 1 ID: 1
読み込みモード : セキュア(C2 : YES / 正確なデータ転送力 : YES / キャッシュ無効 : YES)
読み込みオフセット訂正値 : 0
リードインとリードアウトをオーバーリードする : Yes

使用出力フォーマット : 内部 WAV ルーチン
44.100 Hz; 16 Bit; ステレオ

その他のオプション :
消失したオフセットサンプルを無音に置き換える : Yes
曲の先頭と末尾の無音部を削除する : No
標準 Win32 の Win NT & 2000 用

展開範囲ステータスとエラー
選択された範囲
ファイル名 E:\編集・作業用\Exact Audio Copy\1st-pass (PX-W5232TA・Premium2専用)\大和撫子エデュケイション\yamatonadeshiko_education.wav

ピークレベル 99.9 %
選択範囲品質 100.0 %
CRC E4DC0C81
コピー OK

エラーは検出されませんでした

ステータスの報告終了

Код:

EAC 展開 ログファイル 日付: 21. 7月 2010, 22:25 for CD
トリプルブッキング / 大和撫子エデュケイション

使用ドライブ : PLEXTOR CD-R PREMIUM Adapter: 1 ID: 1
読み込みモード : セキュア(C2 : YES / 正確なデータ転送力 : YES / キャッシュ無効 : YES)
読み込みオフセット訂正値 : 0
リードインとリードアウトをオーバーリードする : Yes

使用出力フォーマット : 内部 WAV ルーチン
44.100 Hz; 16 Bit; ステレオ

その他のオプション :
消失したオフセットサンプルを無音に置き換える : Yes
曲の先頭と末尾の無音部を削除する : No
標準 Win32 の Win NT & 2000 用

展開範囲ステータスとエラー
選択された範囲
ファイル名 E:\編集・作業用\Exact Audio Copy\1st-pass (PX-W5232TA・Premium2専用)\大和撫子エデュケイション\yamatonadeshiko_education.wav

ピークレベル 99.9 %
選択範囲品質 100.0 %
CRC E4DC0C81
コピー OK

エラーは検出されませんでした

ステータスの報告終了

Код:

EAC 展開 ログファイル 日付: 21. 7月 2010, 22:39 for CD
トリプルブッキング / 大和撫子エデュケイション

使用ドライブ : PLEXTOR CD-R PREMIUM Adapter: 1 ID: 1
読み込みモード : セキュア(C2 : YES / 正確なデータ転送力 : YES / キャッシュ無効 : YES)
読み込みオフセット訂正値 : 0
リードインとリードアウトをオーバーリードする : Yes

使用出力フォーマット : 内部 WAV ルーチン
44.100 Hz; 16 Bit; ステレオ

その他のオプション :
消失したオフセットサンプルを無音に置き換える : Yes
曲の先頭と末尾の無音部を削除する : No
標準 Win32 の Win NT & 2000 用

展開範囲ステータスとエラー
選択された範囲
ファイル名 E:\編集・作業用\Exact Audio Copy\3rd-pass (CRCチェック用 その2)\大和撫子エデュケイション\temp2.wav

ピークレベル 99.9 %
選択範囲品質 100.0 %
CRC E4DC0C81
コピー OK

エラーは検出されませんでした

ステータスの報告終了
Продолжительность: 19:30

Треклист:
1. Aoi Haru
2. Tsunaga Room
3. Aoi Haru (off vocal version)
4. Tsunaga Room (off vocal version)

Код:

Exact Audio Copy V0.99 prebeta 5 from 4. May 2009

EAC 取り込みログファイル 日付 : 2. 8月 2010, 18:55

angela / 蒼い春

使用ドライブ   : HL-DT-STDVD-RAM GSA-H58N   Adapter: 2  ID: 0

読み込みモード                       : セキュアモード
ドライブが正確なデータ転送能力を持つ : はい
オーディオキャッシュを使用できる     : いいえ
C2エラー情報を検出する               : いいえ

読み込みサンプルオフセット訂正値             : 72
リードイン・リードアウトをオーバーリードする : いいえ
欠落したオフセットサンプルを無音で補完する   : はい
曲の先頭と末端の無音領域を削除する           : いいえ
CRC計算で無音のサンプルを使用するか          : いいえ
使用インターフェース                         : Win NT & 2000用のクラスドライバ

使用出力モード       : 内蔵WAV出力ルーチン
サンプルフォーマット : 44.100 Hz; 16 Bit; ステレオ

TOC情報を抜き出します

     トラック | スタート |   長さ   | 始めのセクター | 最終セクター
    ----------------------------------------------------------------
         1    |  0:00.00 |  4:08.37 |          0     |     18636
         2    |  4:08.37 |  5:39.13 |      18637     |     44074
         3    |  9:47.50 |  4:08.37 |      44075     |     62711
         4    | 13:56.12 |  5:36.45 |      62712     |     87956

範囲取り込みステータス & エラー

選択された範囲

     ファイル名 Z:\EAC\angela - 蒼い春.wav

     ピークレベル 100.0 %
     範囲取り込み品質 99.9 %
     コピーCRC 4297998D
     コピー OK

エラーは発生しませんでした

ステータス報告完了
Продолжительность: 44:14

Треклист:
1. Shino to Taka Toshi
2. Shizuka na Asa nanoni
3. Hen na no
4. Party Shimasho
5. Sonna Toko...
6. Haitoku no Sakura
7. Chiisani mono ga Isshoukenmei
8. Dai Teitaku Nite
9. Oshiete Ageru
10. Yan Nacchatta
11. Yuttari Sukkiri Nonbiri
12. Yoru no...
13. Jika Hatsuden.
14. Ame no Hi no Dekigoto
15. Boku no Takaramono
16. Seitokai Yakuindomo no March ~Acoustic~
17. Neko to Zareru Hen
18. Shichijou-senpai ni Shitsumon Hen
19. Aria to Osanpo Hen

Код:

Exact Audio Copy V0.99 prebeta 5 from 4. May 2009

EAC 取り込みログファイル 日付 : 3. 11月 2010, 1:17

- / 生徒会役員共 サウンドトラック アリア盤

使用ドライブ   : PIONEER BD-RW   BDR-205   Adapter: 0  ID: 1

読み込みモード                       : セキュアモード
ドライブが正確なデータ転送能力を持つ : はい
オーディオキャッシュを使用できる     : はい
C2エラー情報を検出する               : いいえ

読み込みサンプルオフセット訂正値             : 637
リードイン・リードアウトをオーバーリードする : いいえ
欠落したオフセットサンプルを無音で補完する   : はい
曲の先頭と末端の無音領域を削除する           : いいえ
CRC計算で無音のサンプルを使用するか          : はい
使用インターフェース                         : Win NT & 2000用のクラスドライバ

使用出力モード       : 内蔵WAV出力ルーチン
サンプルフォーマット : 44.100 Hz; 16 Bit; ステレオ

TOC情報を抜き出します

     トラック | スタート |   長さ   | 始めのセクター | 最終セクター
    ----------------------------------------------------------------
         1    |  0:00.00 |  2:07.22 |          0     |      9546
         2    |  2:07.22 |  2:21.36 |       9547     |     20157
         3    |  4:28.58 |  2:02.19 |      20158     |     29326
         4    |  6:31.02 |  2:20.43 |      29327     |     39869
         5    |  8:51.45 |  2:17.62 |      39870     |     50206
         6    | 11:09.32 |  2:21.15 |      50207     |     60796
         7    | 13:30.47 |  2:00.37 |      60797     |     69833
         8    | 15:31.09 |  1:48.34 |      69834     |     77967
         9    | 17:19.43 |  2:04.00 |      77968     |     87267
        10    | 19:23.43 |  2:24.41 |      87268     |     98108
        11    | 21:48.09 |  0:11.26 |      98109     |     98959
        12    | 21:59.35 |  1:36.26 |      98960     |    106185
        13    | 23:35.61 |  2:10.25 |     106186     |    115960
        14    | 25:46.11 |  2:22.49 |     115961     |    126659
        15    | 28:08.60 |  2:20.00 |     126660     |    137159
        16    | 30:28.60 |  2:35.08 |     137160     |    148792
        17    | 33:03.68 |  3:08.34 |     148793     |    162926
        18    | 36:12.27 |  4:46.72 |     162927     |    184448
        19    | 40:59.24 |  3:21.14 |     184449     |    199537

範囲取り込みステータス & エラー

選択された範囲

     ファイル名 I:\EAC\生徒会役員共_サウンドトラック アリア盤/佐藤聡美 (tak)\生徒会役員共 サウンドトラック アリア盤.wav

     ピークレベル 99.9 %
     範囲取り込み品質 99.9 %
     コピーCRC 7071DC0F
     コピー OK

エラーは発生しませんでした

ステータス報告完了
Продолжительность: 47:06
01 March of the Student Councillors - 2:33
02 It Starts, It Starts - 0:06
03 Morning Scene - 1:33
04 Daily Life for the Student Council - 2:41
05 Low Grades - 1:29
06 Even If I Take it Easy... - 0:10
07 Ousai Private School's First Fight Song - 1:59
08 Ousai Private School's Sports Day - 1:42
09 Regularly - 0:09
10 Get Fired Up, Takatoshi - 1:51
11 Onward! Councillors! - 2:15
12 As Expected from a Senior! - 2:09
13 Paparazzi? - 2:05
14 That's Here, That's Here - 0:19
15 Japanese Spirit - 2:15
16 Scary!? - 0:10
17 Summer! Sea! Drive!! - 2:23
18 Breezy Land - 2:35
19 Piropipappa - 0:19
20 MR.J - 2:08
21 On Christmas Night - 2:02
22 Heave-ho - 0:15
23 Making of Candy (Omake ~Shino's Daily Life~) - 4:41
24 Questions for the Chairwoman (Omake ~Shino's Daily Life~) - 4:46
25 Shino-chan at Home (Omake ~Shino's Daily Life~) 4:30

Код:

Exact Audio Copy V0.99 prebeta 5 from 4. May 2009

EAC 取り込みログファイル 日付 : 3. 11月 2010, 1:25

- / 生徒会役員共 サウンドトラック シノ盤

使用ドライブ   : PIONEER BD-RW   BDR-205   Adapter: 0  ID: 1

読み込みモード                       : セキュアモード
ドライブが正確なデータ転送能力を持つ : はい
オーディオキャッシュを使用できる     : はい
C2エラー情報を検出する               : いいえ

読み込みサンプルオフセット訂正値             : 637
リードイン・リードアウトをオーバーリードする : いいえ
欠落したオフセットサンプルを無音で補完する   : はい
曲の先頭と末端の無音領域を削除する           : いいえ
CRC計算で無音のサンプルを使用するか          : はい
使用インターフェース                         : Win NT & 2000用のクラスドライバ

使用出力モード       : 内蔵WAV出力ルーチン
サンプルフォーマット : 44.100 Hz; 16 Bit; ステレオ

TOC情報を抜き出します

     トラック | スタート |   長さ   | 始めのセクター | 最終セクター
    ----------------------------------------------------------------
         1    |  0:00.00 |  2:33.20 |          0     |     11494
         2    |  2:33.20 |  0:06.50 |      11495     |     11994
         3    |  2:39.70 |  1:33.42 |      11995     |     19011
         4    |  4:13.37 |  2:41.25 |      19012     |     31111
         5    |  6:54.62 |  1:29.25 |      31112     |     37811
         6    |  8:24.12 |  0:10.19 |      37812     |     38580
         7    |  8:34.31 |  1:59.36 |      38581     |     47541
         8    | 10:33.67 |  1:42.60 |      47542     |     55251
         9    | 12:16.52 |  0:09.70 |      55252     |     55996
        10    | 12:26.47 |  1:51.40 |      55997     |     64361
        11    | 14:18.12 |  2:15.54 |      64362     |     74540
        12    | 16:33.66 |  2:09.14 |      74541     |     84229
        13    | 18:43.05 |  2:05.73 |      84230     |     93677
        14    | 20:49.03 |  0:19.57 |      93678     |     95159
        15    | 21:08.60 |  2:15.18 |      95160     |    105302
        16    | 23:24.03 |  0:10.53 |     105303     |    106105
        17    | 23:34.56 |  2:23.50 |     106106     |    116880
        18    | 25:58.31 |  2:35.41 |     116881     |    128546
        19    | 28:33.72 |  0:19.58 |     128547     |    130029
        20    | 28:53.55 |  2:08.59 |     130030     |    139688
        21    | 31:02.39 |  2:02.45 |     139689     |    148883
        22    | 33:05.09 |  0:15.67 |     148884     |    150075
        23    | 33:21.01 |  4:41.03 |     150076     |    171153
        24    | 38:02.04 |  4:46.64 |     171154     |    192667
        25    | 42:48.68 |  4:30.43 |     192668     |    212960

範囲取り込みステータス & エラー

選択された範囲

     ファイル名 I:\EAC\生徒会役員共_サウンドトラック シノ盤/日笠陽子 (tak)\生徒会役員共 サウンドトラック シノ盤.wav

     ピークレベル 99.9 %
     範囲取り込み品質 99.9 %
     コピーCRC F7087D60
     コピー OK

エラーは発生しませんでした

ステータス報告完了

Код:

fooCDtect - foobar2000 + auCDtect, baralgin.

auCDtect: CD records authenticity detector, version 0.8.2
Copyright (c) 2004 Oleg Berngardt. All rights reserved.
Copyright (c) 2004 Alexander Djourik. All rights reserved.

     mode: 0

===========================================
    Track: Mr.J
  Quality: CDDA 100%
===========================================
    Track: いきなりキレなくても・・・
  Quality: CDDA  99%
===========================================
    Track: おまけ~シノの日常~ お菓子作り 編
  Quality: CDDA 100%
===========================================
    Track: おまけ~シノの日常~ 天草会長に質問 編
  Quality: CDDA 100%
===========================================
    Track: おまけ~シノの日常~ 自宅でのシノちゃん
  Quality: CDDA  99%
===========================================
    Track: クリスマスの夜に
  Quality: CDDA 100%
===========================================
    Track: さすが先輩!
  Quality: CDDA 100%
===========================================
    Track: せーのっ
  Quality: CDDA 100%
===========================================
    Track: チャンチャン
  Quality: CDDA 100%
===========================================
    Track: はじまりはじまり
  Quality: CDDA  99%
===========================================
    Track: ぱぱらっち?
  Quality: CDDA 100%
===========================================
    Track: ぴろぴぱっぱ
  Quality: CDDA  99%
===========================================
    Track: 低空飛行
  Quality: CDDA 100%
===========================================
    Track: 和の魂
  Quality: CDDA 100%
===========================================
    Track: 夏だ!海だ!ドライブだ!!
  Quality: CDDA 100%
===========================================
    Track: 怖っ!?
  Quality: CDDA 100%
===========================================
    Track: 朝の風景
  Quality: CDDA 100%
===========================================
    Track: 来た来た
  Quality: CDDA  62%
===========================================
    Track: 燃えよタカトシ
  Quality: CDDA 100%
===========================================
    Track: 生徒会の日常
  Quality: CDDA 100%
===========================================
    Track: 生徒会役員共のマーチ
  Quality: CDDA 100%
===========================================
    Track: 私立桜才学園大運動会
  Quality: CDDA 100%
===========================================
    Track: 私立桜才学園第一応援歌
  Quality: CDDA 100%
===========================================
    Track: 進め!役員共!
  Quality: CDDA  99%
===========================================
    Track: 風の大地
  Quality: CDDA  99%
===========================================



Трекер:  [ 14-Апр-2011 17:13 ]

  

Скачать .torrent

Размер .torrent файла 28 KB


Размер: 902 MB
Хэш (hash) релиза: 106f53d6bbe7f675556b2904149aaac131dfc066

Еще никто не оставлял запись к записи скачать торрент Члены Школьного совета Seitokai Yakuindomo - 2010, FLAC . Будь первым!

!Обратная связь