Top Videos | canadien | Lilin Herlina - SECAWAN MADU - New Pallapa

Скачать через торрент [VIDEO] Ответный удар Strike Back бесплатно русская версия torrent активатор

Статистика раздачи
Размер:  3.76 GB   |    Зарегистрирован:  2 года 9 месяцев   |    .torrent скачан:  95 раз   |   
Раздают:  1  
   
загрузка...
 
Автор Сообщение

Galfimbul

avatar Galfimbul


Ответный удар / Strike Back

Год выпуска: 2015

Страна: Великобритания
Жанр: боевик, триллер, драма
Продолжительность: 00:44:00
Перевод: Профессиональный (многоголосый закадровый) (BaibaKo)
Cубтитры: нет
Оригинальная аудиодорожка: нет

Режиссер: Дэниэл Персивал

В ролях: Филип Уинчестер, Салливан Степлтон, Мишель Лукес, Рашан Стоун, Робсон Грин, Милона Джексон, Рона Митра, Аманда Милинг, Лиам Гэрриган, Джими Мистри...

Описание: Джон Портер накануне вторжения в Ирак в 2003 году руководит специальным подразделением в операции по спасению заложника в центре Басры. Однако, результатом операции становится катастрофический поворот событий для него и Коллинсона. У Портера, страдающего чувством вины, спустя 7 лет появляется возможность вернуться в Ирак и попытаться все исправить. Спустя годы, Портер и Коллинсон столкнутся снова.Качество: HDTVRip
Формат: MP4
Видео кодек: XviD
Аудио кодек: AAC

Видео: MPEG-4 Visual at 1080 Кбит/сек; 640 x 360 (1.778) at 24.925 fps
Аудио: AAC at 128 Кбит/сек; 2 канала, 44,1 КГц

Релиз от -
Общее
Полное имя : D:\Фильмы\Сериалы\Strike Back.2015.S05.HDTVRip.MP4. rip by [Assassin's Creed]\Strike Back.E0.HDTVRip.MP4. rip by [Assassin's Creed].mp4
Формат : MPEG-4
Профиль формата : Base Media / Version 2
Идентификатор кодека : mp42
Размер файла : 386 Мбайт
Продолжительность : 44 м.
Режим общего битрейта : Переменный
Общий поток : 1210 Кбит/сек
Дата кодирования : UTC 2015-09-21 20:03:50
Дата пометки : UTC 2015-09-21 20:03:50

Видео
Идентификатор : 201
Формат : MPEG-4 Visual
Профиль формата : Advanced [email protected]
Параметр BVOP формата : Нет
Параметр QPel формата : Нет
Параметр GMC формата : Без точки перехода
Параметр матрицы формата : Default (H.263)
Идентификатор кодека : 20
Продолжительность : 44 м.
Вид битрейта : Переменный
Битрейт : 1080 Кбит/сек
Максимальный битрейт : 6902 Кбит/сек
Ширина : 640 пикселей
Высота : 360 пикселей
Соотношение сторон : 16:9
Режим частоты кадров : Переменный
Частота кадров : 24,925 кадров/сек
Частота кадров в оригинале : 25,000 кадров/сек
Минимальная частота кадров : 0,581 кадр/сек
Максимальная частота кадров : 25,000 кадров/сек
Цветовое пространство : YUV
Субдискретизация насыщенности : 4:2:0
Битовая глубина : 8 бит
Тип развёртки : Прогрессивная
Метод сжатия : С потерями
Бит/(Пиксели*Кадры) : 0.188
Размер потока : 344 Мбайт (89%)
Библиотека кодирования : XviD 1.2.1 (UTC 2008-12-04)
Дата кодирования : UTC 2015-09-21 20:03:50
Дата пометки : UTC 2015-09-21 20:04:08

Аудио
Идентификатор : 101
Формат : AAC
Формат/Информация : Advanced Audio Codec
Профиль формата : LC
Идентификатор кодека : 40
Продолжительность : 44 м.
Вид битрейта : Переменный
Битрейт : 128 Кбит/сек
Максимальный битрейт : 144 Кбит/сек
Каналы : 2 канала
Расположение каналов : Front: L R
Частота : 48,0 КГц
Метод сжатия : С потерями
Размер потока : 40,8 Мбайт (11%)
Дата кодирования : UTC 2015-09-21 20:04:06
Дата пометки : UTC 2015-09-21 20:04:08

Прочее #1
Идентификатор : 2
Тип : Object description
Формат : System
Идентификатор кодека : 1
Продолжительность : 1 с. 0 мс.
Дата кодирования : UTC 2015-09-21 20:04:08
Дата пометки : UTC 2015-09-21 20:04:08

Прочее #2
Идентификатор : 1
Тип : Scene description
Формат : System Core
Идентификатор кодека : 2
Продолжительность : 1 с. 0 мс.
Дата кодирования : UTC 2015-09-21 20:04:08
Дата пометки : UTC 2015-09-21 20:04:08


Трекер:  [ 26-Сен-2015 07:30 ]

  

Скачать .torrent

Размер .torrent файла 20 KB


Размер: 3.76 GB
Хэш (hash) релиза: c6d2488d89bc949e35179cb2e54d4aa03e438818

Еще никто не оставлял запись к записи скачать торрент [VIDEO] Ответный удар Strike Back . Будь первым!

!Обратная связь