Aldri mer stress | Douglas Walton | Download

Скачать через торрент [VIDEO] Файлан Failan бесплатно русская версия torrent активатор

Статистика раздачи
Размер:  525 MB   |    Зарегистрирован:  2 года 10 месяцев   |    .torrent скачан:  11 раз   |   
Раздают:  1  
   
загрузка...
 
Автор Сообщение

Galfimbul

avatar Galfimbul


Файлан / Failan / Pairan

Год выпуска: 2001
Страна: Корея Южная
Жанр: драма, мелодрама
Продолжительность: 01:56:12
Перевод: Русский | Одноголосый ( закадровый) D.I.M.
Cубтитры: нет
Режиссер: Хе-сонг Сонг / Hae-sung Song
Сценарист: Джиро Асада / Jirô Asada
Оператор: Ён-чхоль Ким / Yeong-cheol Kim
Монтажер: Кок-чжи Пак / Gok-ji Park
Композитор: Чжэ-чжин Ли / Jae-jin Lee
В ролях: Чхве Мин Сик / Choi Min Sik (в титрах: Min-shik Choi) (Kang-jae), Сесилия Чунг / Cecilia Cheung (Failan), Дэ-Хун Чон / Dae-Hoon Jeong, Кон Хён Чжин / Hyeong-jin Kong (Kyung-Su), Сон Бён Хо / Son Byung .
Зрители: 25.5 тыс.
Премьера (мир): 28 апреля 2001
Описание: После смерти обоих родителей Файлан эмигрирует в Южную Корею с целью найти там оставшихся родственников. По приезде она узнаёт, что они переехали в Канаду. Несчастная Файлан в попытке хоть как-то устроить свою жизнь в чужой и незнакомой Корее обращается в брачное агентство, где ей находят мужа. Кан Чже — уже немолодой гангстер, плохо обеспеченный и не имеющий никакого авторитета.

Файлан ничего не знает о Кан Чже, у неё есть только его фотография от агентства. Брак с ним позволяет Файлан получить разрешение на работу, Кан Чже получает обещанное денежное вознаграждение, и, казалось бы, что на этом их отношения должны завершиться, но Файлан начинает испытывать любовь к незнакомому мужу.

Хотя они никогда не встречались, Файлан пишет Кан Чже, но никогда не отправляет, письма о своей любви и втайне надеется, что он приедет к ней повидаться. В конце концов «муж» Файлан узнаёт о том, как много он значил для неё, о том, что кроме него у неё никого нет. Вдруг Кан Чже понимает, что и у него в жизни не было ничего ценного, кроме её любви, никто не ждал и не нуждался в нём так, как Файлан. К сожалению, это открытие происходит слишком поздно.
Релиз группы
Качество: HDRip / [url=...5050652]BDRip 720p[/url]
Формат: MP4
Видео кодек: XviD
Аудио кодек: AAC
Видео: 480x272 AR:16/9 500 kbps 23.976 fps
Аудио: [Русский] 2ch 48 kHz 128 kbps - [VO] D.I.M.
GeneralComplete name : E:\Torrents\Failan.2001.HDRip.XviD.480x.rip by Frost O.S.mp4Format : MPEG-4Format profile : Base Media / Version 2Codec ID : mp42File size : 525 MiBDuration : 1h 56mnOverall bit rate mode : VariableOverall bit rate : 632 KbpsEncoded date : UTC 2015-09-13 12:44:06Tagged date : UTC 2015-09-13 12:44:06

VideoID : 201Format : MPEG-4 VisualFormat profile : Advanced [email protected] settings, BVOP : YesFormat settings, QPel : NoFormat settings, GMC : No warppointsFormat settings, Matrix : CustomCodec ID : 20Duration : 1h 56mnBit rate mode : VariableBit rate : 500 KbpsMaximum bit rate : 3 380 KbpsWidth : 480 pixelsHeight : 272 pixelsDisplay aspect ratio : 16:9Frame rate mode : ConstantFrame rate : 23.976 fpsColor space : YUVChroma subsampling : 4:2:0Bit depth : 8 bitsScan type : ProgressiveCompression mode : LossyBits/(Pixel*Frame) : 0.160Stream size : 415 MiB (79%)Writing library : XviD 73Encoded date : UTC 2015-09-13 12:44:06Tagged date : UTC 2015-09-13 12:44:24

AudioID : 101Format : AACFormat/Info : Advanced Audio CodecFormat profile : LCCodec ID : 40Duration : 1h 56mnBit rate mode : VariableBit rate : 128 KbpsMaximum bit rate : 189 KbpsChannel(s) : 2 channelsChannel positions : Front: L RSampling rate : 48.0 KHzCompression mode : LossyStream size : 106 MiB (20%)Encoded date : UTC 2015-09-13 12:44:20Tagged date : UTC 2015-09-13 12:44:24

Other #1ID : 2Type : Object descriptionFormat : SystemCodec ID : 1Duration : 1s 0msEncoded date : UTC 2015-09-13 12:44:24Tagged date : UTC 2015-09-13 12:44:24

Other #2ID : 1Type : Scene descriptionFormat : System CoreCodec ID : 2Duration : 1s 0msEncoded date : UTC 2015-09-13 12:44:24Tagged date : UTC 2015-09-13 12:44:24


Трекер:  [ 13-Сен-2015 15:30 ]

  

Скачать .torrent

Размер .torrent файла 10 KB


Размер: 525 MB
Хэш (hash) релиза: 0d09b6318dca358b5e1b66c03d32e3d351b7f892

Торренты, похожие на [VIDEO] Файлан Failan скачать торрент

Форум Название Автор Размер S L Добавлен
Видео (Фильмы/Клипы) ·· [VIDEO] Файлан / Failan / Pairan (Хе-сонг Сонг / Hae-sung Song) [2001, драма, мелодрама, HDRip] [3GP, 320x] VO D.I.M. Galfimbul 418844854399 MB 0 0 1496964781

02:33

9-Июн-17

Видео (Фильмы/Клипы) ·· [VIDEO] Файлан / Failan / Pairan (Хе-сонг Сонг / Hae-sung Song) [2001, драма, мелодрама, HDRip] [MP4, 960x] VO D.I.M. Galfimbul 16313464711.52 GB 0 0 1441920668

00:31

11-Сен-15

Еще никто не оставлял запись к записи скачать торрент [VIDEO] Файлан Failan . Будь первым!

!Обратная связь