Microsoft BizTalk Server 2016 | IMDb: 4.9 HD Middleground | Streaminfr.com

Скачать через торрент [VIDEO] Тот ещё Карлосон! бесплатно русская версия torrent активатор

Статистика раздачи
Размер:  288 MB   |    Зарегистрирован:  2 года 10 месяцев   |    .torrent скачан:  14 раз   |   
Раздают:  1  
   
загрузка...
 
Автор Сообщение

Galfimbul

avatar Galfimbul


Тот ещё Карлосон!
«Пошалим?!»

Год выпуска: 2012
Страна: Россия
Жанр: фэнтези, комедия, семейный
Продолжительность: 01:23:50
Перевод: Не требуется
Cубтитры: нет
Режиссер: Сарик Андреасян
Сценаристы: Сарик Андреасян, Тихон Корнев, Павел Карнаухов, Сергей Мохначев
Монтажер: Кирилл Козлов
Композиторы: Александр Иванов, Дарин Сысоев, Арташес Андреасян
В ролях: Михаил Галустян (Карлосон), Федя Смирнов (Малыш), Олег Табаков (Старейшина), Нонна Гришаева (няня Елена Александровна), Игорь Верник (папа Малыша), Мария Сёмкина (мама Малыша) и другие .
Бюджет: $4 000 000Сборы в мире: $11 250 000Cборы в России: $10 353 078Зрители: 1.68 млн, 195.3 тыс., 9.3 тыс.Премьера (мир): 15 марта 2012Премьера (РФ): 15 марта 2012, «Каропрокат»Премьера (Укр.): 15 марта 2012Релиз на DVD: 10 апреля 2012, «Lizard Cinema Trade»Релиз на Blu-Ray: 10 апреля 2012, «Lizard Cinema Trade»
Описание:
Герой Михаила Галустяна, прозванного в нашем мире за сходство КарлОсоном, живет в волшебном и красочном мире Метриков — пухлых большеухих летающих человечков метрового роста, миссия которых — помогать ребятишкам, которым взрослые, скорее, создают проблемы, нежели решают их. Метрики могут показываться детям, но вынуждены тщательно скрывать факт своего существования от скучных взрослых.

Наш герой — беззаботный, озорной, в меру эгоистичный сладкоежка, частенько сбегающий от соплеменников в мир людей, чтобы пошалить и порезвиться. Ведь в душе он сам еще ребенок — ему только-только исполнилось 300 лет.

Однажды старейшина метриков поручает нашему герою ответственное задание — помочь одинокому 7-летнему Малышу, чьи родители оказались на грани развода. Малыш — добрый мальчик, но у него почти нет друзей, зато есть всевозможные электронные игрушки и устройства, покупаемые родителями по первому же его слову. Появление такого особенного, самого-пресамого лучшего друга на свете меняет жизнь Малыша.

Но никто не верит Малышу, что его друг — это не просто плод воображения, а самый что ни на есть настоящий пухлый человечек из волшебного мира метриков. Ситуация становится критической, когда Малыша ведут к школьному психологу, приставляют к нему няню, а одноклассники начинают издеваться над его «выдумками». Тут-то его волшебный друг и оказывается перед выбором: доказать окружению Малыша, что он существует, рискуя быть серьезно наказанным в своем мире, или хладнокровно наблюдать за ситуацией со стороны? Познает ли наш обаятельный беззаботный человечек такие ценности, как настоящая дружба, преданность и бескорыстность?

Съемочный период фильма: июнь — сентябрь 2011 года.
Постановка трюков осуществлялась каскадером Владимиром Орловым, известным своей работой в фильмах: «Турист» (2010), «Солт» (2010), «Пираты Карибского моря: Проклятие Черной Жемчужины» (2003).
Компьютерная графика была выполнена компанией CG Factory и студией «Улитка».

Релиз группы
Качество:HDRip / рип с BDRip 720p
Формат: 3GP
Видео кодек: Другой MPEG4
Аудио кодек: AAC
Видео: 320x136 AR:2.35 350 kbps 15 fps
Аудио: [Русский] 2ch 48 kHz 128 kbps
GeneralComplete name : E:\Torrents\Tot.esho.Karloson.2012.HDRip.MPEG4.320x.rip by Frost O.S.3gpFormat : MPEG-4Format profile : 3GPP Media Release 5Codec ID : 3gp5File size : 288 MiBDuration : 1h 23mnOverall bit rate mode : VariableOverall bit rate : 480 KbpsEncoded date : UTC 2015-09-05 13:08:40Tagged date : UTC 2015-09-05 13:08:40

VideoID : 1Format : MPEG-4 VisualFormat profile : [email protected] settings, BVOP : NoFormat settings, QPel : NoFormat settings, GMC : No warppointsFormat settings, Matrix : Default (H.263)Codec ID : 20Duration : 1h 23mnBit rate mode : VariableBit rate : 350 KbpsMaximum bit rate : 760 KbpsWidth : 320 pixelsHeight : 136 pixelsDisplay aspect ratio : 2.35:1Frame rate mode : ConstantFrame rate : 15.000 fpsColor space : YUVChroma subsampling : 4:2:0Bit depth : 8 bitsScan type : ProgressiveCompression mode : LossyBits/(Pixel*Frame) : 0.536Stream size : 210 MiB (73%)Writing library : Lavc53.33.0Encoded date : UTC 2015-09-05 13:08:40Tagged date : UTC 2015-09-05 13:08:55

AudioID : 2Format : AACFormat/Info : Advanced Audio CodecFormat profile : LCCodec ID : 40Duration : 1h 23mnBit rate mode : VariableBit rate : 128 KbpsMaximum bit rate : 142 KbpsChannel(s) : 2 channelsChannel positions : Front: L RSampling rate : 48.0 KHzCompression mode : LossyStream size : 76.8 MiB (27%)Encoded date : UTC 2015-09-05 13:08:52Tagged date : UTC 2015-09-05 13:08:55


Трекер:  [ 10-Сен-2015 22:30 ]

  

Скачать .torrent

Размер .torrent файла 11 KB


Размер: 288 MB
Хэш (hash) релиза: 14188da5bc8ae09a71700615998edfc53883ca42

Торренты, похожие на [VIDEO] Тот ещё Карлосон! скачать торрент

Форум Название Автор Размер S L Добавлен
Видео (Фильмы/Клипы) ·· [VIDEO] Тот ещё Карлосон! (Сарик Андреасян) [2012, фэнтези, комедия, семейный, HDRip] [MP4, 960x] Galfimbul 1017893562971 MB 0 0 1441920777

00:32

11-Сен-15

Еще никто не оставлял запись к записи скачать торрент [VIDEO] Тот ещё Карлосон! . Будь первым!

!Обратная связь