Прямая ссылка | Pop Indonesia 90an - 2000 | search cloud

Скачать через торрент [VIDEO] Файлан Failan бесплатно русская версия torrent активатор

Статистика раздачи
Размер:  1.52 GB   |    Зарегистрирован:  2 года 10 месяцев   |    .torrent скачан:  8 раз   |   
Раздают:  1  
   
загрузка...
 
Автор Сообщение

Galfimbul

avatar Galfimbul


Файлан / Failan / Pairan

Год выпуска: 2001
Страна: Корея Южная
Жанр: драма, мелодрама
Продолжительность: 01:56:12
Перевод: Русский | Одноголосый ( закадровый) D.I.M.
Cубтитры: нет
Режиссер: Хе-сонг Сонг / Hae-sung Song
Сценарист: Джиро Асада / Jirô Asada
Оператор: Ён-чхоль Ким / Yeong-cheol Kim
Монтажер: Кок-чжи Пак / Gok-ji Park
Композитор: Чжэ-чжин Ли / Jae-jin Lee
В ролях: Чхве Мин Сик / Choi Min Sik (в титрах: Min-shik Choi) (Kang-jae), Сесилия Чунг / Cecilia Cheung (Failan), Дэ-Хун Чон / Dae-Hoon Jeong, Кон Хён Чжин / Hyeong-jin Kong (Kyung-Su), Сон Бён Хо / Son Byung .
Зрители: 25.5 тыс.
Премьера (мир): 28 апреля 2001
Описание: После смерти обоих родителей Файлан эмигрирует в Южную Корею с целью найти там оставшихся родственников. По приезде она узнаёт, что они переехали в Канаду. Несчастная Файлан в попытке хоть как-то устроить свою жизнь в чужой и незнакомой Корее обращается в брачное агентство, где ей находят мужа. Кан Чже — уже немолодой гангстер, плохо обеспеченный и не имеющий никакого авторитета.

Файлан ничего не знает о Кан Чже, у неё есть только его фотография от агентства. Брак с ним позволяет Файлан получить разрешение на работу, Кан Чже получает обещанное денежное вознаграждение, и, казалось бы, что на этом их отношения должны завершиться, но Файлан начинает испытывать любовь к незнакомому мужу.

Хотя они никогда не встречались, Файлан пишет Кан Чже, но никогда не отправляет, письма о своей любви и втайне надеется, что он приедет к ней повидаться. В конце концов «муж» Файлан узнаёт о том, как много он значил для неё, о том, что кроме него у неё никого нет. Вдруг Кан Чже понимает, что и у него в жизни не было ничего ценного, кроме её любви, никто не ждал и не нуждался в нём так, как Файлан. К сожалению, это открытие происходит слишком поздно.
Релиз группы
Качество: HDRip / [url=...5050652]BDRip 720p[/url]
Формат: MP4
Видео кодек: H264
Аудио кодек: AAC
Видео: 960x544 AR:16/9 1740 kbps 23.976 fps
Аудио: [Русский] 2ch 48 kHz 128 kbps - [VO] D.I.M.
...last pass...

x264.exe: --pass 2 --bitrate 1740 --preset medium --profile high --level 4.1 --ref 10 --deblock -1:-1 --merange 32 --bframes 9 --direct auto --b-adapt 2 --trellis 2 --no-fast-pskip --no-dct-decimate --psy-rd 1.00:0.15 --subme 11 --me umh --min-keyint 25 --keyint 240 --colorprim bt709 --transfer bt709 --colormatrix bt709 --sar 1:1 --stats "E:\Failan.2001.BDRip.720p_by_vedigo.log" --output "E:\Failan.2001.BDRip.720p_by_vedigo.mp4" "E:\Temp\0326.avs"

avs [info]: 960x544p 1:1 @ 2500000/104271 fps (cfr)
x264 [info]: using SAR=1/1
x264 [info]: using cpu capabilities: MMX2 SSE2Fast SSSE3 SSE4.2 LZCNT
x264 [info]: profile High, level 4.1

x264 [info]: frame I:913 Avg QP:16.03 size: 83977
x264 [info]: frame P:32033 Avg QP:18.93 size: 22623
x264 [info]: frame B:134218 Avg QP:21.35 size: 5328
x264 [info]: consecutive B-frames: 1.1% 1.5% 5.3% 10.6% 11.4% 56.7% 5.7% 2.7% 3.6% 1.4%
x264 [info]: mb I I16..4: 8.0% 68.6% 23.4%
x264 [info]: mb P I16..4: 0.9% 6.2% 1.0% P16..4: 36.0% 38.8% 14.1% 0.0% 0.0% skip: 3.1%
x264 [info]: mb B I16..4: 0.1% 0.7% 0.1% B16..8: 37.4% 14.8% 1.7% direct: 3.8% skip:41.4% L0:45.0% L1:46.3% BI: 8.8%
x264 [info]: 8x8 transform intra:76.5% inter:58.3%
x264 [info]: direct mvs spatial:98.8% temporal:1.2%
x264 [info]: coded y,uvDC,uvAC intra: 85.1% 64.4% 33.2% inter: 20.3% 14.5% 4.2%
x264 [info]: i16 v,h,dc,p: 38% 17% 11% 35%
x264 [info]: i8 v,h,dc,ddl,ddr,vr,hd,vl,hu: 8% 8% 8% 10% 14% 13% 14% 11% 14%
x264 [info]: i4 v,h,dc,ddl,ddr,vr,hd,vl,hu: 11% 9% 6% 9% 14% 13% 13% 11% 13%
x264 [info]: i8c dc,h,v,p: 37% 32% 18% 13%
x264 [info]: Weighted P-Frames: Y:2.3% UV:1.0%
x264 [info]: ref P L0: 40.7% 9.3% 19.0% 7.3% 6.7% 4.8% 4.8% 2.4% 2.5% 2.2% 0.2% 0.0%
x264 [info]: ref B L0: 66.7% 13.1% 7.5% 3.8% 2.9% 2.6% 2.1% 0.9% 0.4%
x264 [info]: ref B L1: 90.9% 9.1%
x264 [info]: kb/s:1740.03

x264 [total]: encoded 167164 frames, 5.74 fps, 1740.03 kb/s
GeneralComplete name : E:\Torrents\Failan.2001.HDRip.x264.960x.rip by Frost O.S.mp4Format : MPEG-4Format profile : Base MediaCodec ID : isomFile size : 1.52 GiBDuration : 1h 56mnOverall bit rate mode : VariableOverall bit rate : 1 872 KbpsMovie name : Failan 2001 HDRip x264 960x rip by Frost O SContentType : Short FilmEncoded date : UTC 2015-09-10 17:15:39Tagged date : UTC 2015-09-10 17:18:04Writing application : MkvToMp4 version: 0.224 (x64)Cover : Yes

VideoID : 1Format : AVCFormat/Info : Advanced Video CodecFormat profile : [email protected] settings, CABAC : YesFormat settings, ReFrames : 10 framesCodec ID : avc1Codec ID/Info : Advanced Video CodingDuration : 1h 56mnBit rate : 1 740 KbpsMaximum bit rate : 7 042 KbpsWidth : 960 pixelsHeight : 544 pixelsDisplay aspect ratio : 16:9Frame rate mode : ConstantFrame rate : 23.976 fpsColor space : YUVChroma subsampling : 4:2:0Bit depth : 8 bitsScan type : ProgressiveBits/(Pixel*Frame) : 0.139Stream size : 1.41 GiB (93%)Writing library : x264 core 130 r2273 b3065e6Encoding settings : cabac=1 / ref=10 / deblock=1:-1:-1 / analyse=0x3:0x113 / me=umh / subme=11 / psy=1 / psy_rd=1.00:0.15 / mixed_ref=1 / me_range=32 / chroma_me=1 / trellis=2 / 8x8dct=1 / cqm=0 / deadzone=21,11 / fast_pskip=0 / chroma_qp_offset=-3 / threads=3 / lookahead_threads=1 / sliced_threads=0 / nr=0 / decimate=0 / interlaced=0 / bluray_compat=0 / constrained_intra=0 / bframes=9 / b_pyramid=2 / b_adapt=2 / b_bias=0 / direct=3 / weightb=1 / open_gop=0 / weightp=2 / keyint=240 / keyint_min=25 / scenecut=40 / intra_refresh=0 / rc_lookahead=40 / rc=2pass / mbtree=1 / bitrate=1740 / ratetol=1.0 / qcomp=0.60 / qpmin=0 / qpmax=69 / qpstep=4 / cplxblur=20.0 / qblur=0.5 / ip_ratio=1.40 / aq=1:1.00Language : EnglishEncoded date : UTC 2015-09-10 17:15:39Tagged date : UTC 2015-09-10 17:16:42Color primaries : BT.709Transfer characteristics : BT.709Matrix coefficients : BT.709

AudioID : 2Format : AACFormat/Info : Advanced Audio CodecFormat profile : LCCodec ID : 40Duration : 1h 56mnBit rate mode : VariableBit rate : 128 KbpsMaximum bit rate : 135 KbpsChannel(s) : 2 channelsChannel positions : Front: L RSampling rate : 48.0 KHzCompression mode : LossyStream size : 106 MiB (7%)Title : [VO] D.I.M.Language : RussianEncoded date : UTC 2015-09-10 17:16:36Tagged date : UTC 2015-09-10 17:16:42


Трекер:  [ 10-Сен-2015 22:30 ]

  

Скачать .torrent

Размер .torrent файла 15 KB


Размер: 1.52 GB
Хэш (hash) релиза: 7405f718e2a42dfff5f282cc35066dccee216771

Торренты, похожие на [VIDEO] Файлан Failan скачать торрент

Форум Название Автор Размер S L Добавлен
Видео (Фильмы/Клипы) ·· [VIDEO] Файлан / Failan / Pairan (Хе-сонг Сонг / Hae-sung Song) [2001, драма, мелодрама, HDRip] [3GP, 320x] VO D.I.M. Galfimbul 418844854399 MB 0 0 1496964781

02:33

9-Июн-17

Видео (Фильмы/Клипы) ·· [VIDEO] Файлан / Failan / Pairan (Хе-сонг Сонг / Hae-sung Song) [2001, драма, мелодрама, HDRip] [MP4, 480x] VO D.I.M. Galfimbul 550817814525 MB 0 0 1442151284

16:34

13-Сен-15

Еще никто не оставлял запись к записи скачать торрент [VIDEO] Файлан Failan . Будь первым!

!Обратная связь