Women of Mafia | TSVF-MD Le Crime de l'Orient-Express | Удивительный мир Гамбола

Скачать через торрент [VIDEO] Сумрачный самурай Сумеречный самурай бесплатно русская версия torrent активатор

Статистика раздачи
Размер:  594 MB   |    Зарегистрирован:  2 года 11 месяцев   |    .torrent скачан:  40 раз   |   
Раздают:  1  
   
загрузка...
 
Автор Сообщение

Galfimbul

avatar Galfimbul


Сумрачный самурай / Сумеречный самурай / Tasogare Seibei / The Twilight Samurai

Год выпуска: 2002
Страна: Япония
Жанр: Драма, мелодрама
Продолжительность: 02:09:02
Перевод: Русский | Профессиональный (многоголосый, закадровый) "Кино без границ"
Cубтитры: нет
Режиссер: Ёдзи Ямада / Yôji Yamada
Сценаристы: Ёдзи Ямада / Yôji Yamada, Ёситака Асама / Yoshitaka Asama, Шуухей Фуджисава / Shûhei Fujisawa
Оператор: Муцуо Наганума / Mutsuo Naganuma
Монтажер: Ивао Исий / Iwao Ishii
Композитор: Исао Томита / Isao Tomita
Оператор: Муцуо Наганума / Mutsuo Naganuma
В ролях: Хироюки Санада / Hiroyuki Sanada (Seibei Iguchi), Риэ Миядзава / Rie Miyazawa (Tomoe Iinuma), Нэндзи Кобаяси / Nenji Kobayashi (Choubei Kusaka), Рен Осуги / Ren Osugi (Toyotarou Kouda), Мицуру Фукикоси / Mitsuru Fukikoshi (Michinojo Iinuma), Канако Фукаура / Kanako Fukaura, Хироши Канбе / Hiroshi Kanbe (Naota), Мики Ито / Miki Itô (Kayano Iguchi) и другие .
Бюджет: $5 000 000
Сборы в США: $559765
Зрители: 18.5 тыс., 13.4 тыс., 11.7 тыс.
Премьера (мир): 2 ноября 2002
Премьера (РФ): 6 ноября 2003, «Кино без границ», «Пан Терра»
Релиз на DVD: 22 июня 2004, «Ruscico»
Описание: История Сейбея — скромного самурая низшего ранга и его семьи, живших в эпоху смуты. Сейбей победил в поединке противника деревянным мечом, и когда об этом распространилась молва, он против своей воли оказался вовлеченным в конфликт внутри самурайского клана и получает приказ сюзерена убить такого же, как и он сам, вассала…
Релиз группы
Качество: HDRip / [url=...3470509]BDRip 720p[/url]
Формат: MP4
Видео кодек: XviD
Аудио кодек: AAC
Видео: 480x256 AR:1.85 512 kbps 23.976 fps
Аудио: [Русский] 2ch 48 kHz 128 kbps - [MVO] "Кино без границ"
GeneralComplete name : E:\Torrents\Tasogare.Seibei.2002.HDRip.XviD.480x.rip by Frost O.S.mp4Format : MPEG-4Format profile : Base Media / Version 2Codec ID : mp42File size : 594 MiBDuration : 2h 9mnOverall bit rate mode : VariableOverall bit rate : 644 KbpsEncoded date : UTC 2015-08-03 08:55:20Tagged date : UTC 2015-08-03 08:55:20

VideoID : 201Format : MPEG-4 VisualFormat profile : Advanced [email protected] settings, BVOP : YesFormat settings, QPel : NoFormat settings, GMC : No warppointsFormat settings, Matrix : CustomCodec ID : 20Duration : 2h 9mnBit rate mode : VariableBit rate : 512 KbpsMaximum bit rate : 2 521 KbpsWidth : 480 pixelsHeight : 256 pixelsDisplay aspect ratio : 1.85:1Frame rate mode : ConstantFrame rate : 23.976 fpsColor space : YUVChroma subsampling : 4:2:0Bit depth : 8 bitsScan type : ProgressiveCompression mode : LossyBits/(Pixel*Frame) : 0.174Stream size : 472 MiB (80%)Writing library : XviD 73Encoded date : UTC 2015-08-03 08:55:20Tagged date : UTC 2015-08-03 08:56:53

AudioID : 101Format : AACFormat/Info : Advanced Audio CodecFormat profile : LCCodec ID : 40Duration : 2h 9mnBit rate mode : VariableBit rate : 128 KbpsMaximum bit rate : 213 KbpsChannel(s) : 2 channelsChannel positions : Front: L RSampling rate : 48.0 KHzCompression mode : LossyStream size : 118 MiB (20%)Encoded date : UTC 2015-08-03 08:56:25Tagged date : UTC 2015-08-03 08:56:53

Other #1ID : 2Type : Object descriptionFormat : SystemCodec ID : 1Duration : 1s 0msEncoded date : UTC 2015-08-03 08:56:53Tagged date : UTC 2015-08-03 08:56:53

Other #2ID : 1Type : Scene descriptionFormat : System CoreCodec ID : 2Duration : 1s 0msEncoded date : UTC 2015-08-03 08:56:53Tagged date : UTC 2015-08-03 08:56:53


Трекер:  [ 03-Авг-2015 11:30 ]

  

Скачать .torrent

Размер .torrent файла 12 KB


Размер: 594 MB
Хэш (hash) релиза: d201c89e333abab2c42570044819219d9504bf5e

Еще никто не оставлял запись к записи скачать торрент [VIDEO] Сумрачный самурай Сумеречный самурай . Будь первым!

!Обратная связь