Srdjan Todorovic | Bob, der Flaschengeist | ReplayLunch Play Unravel 2 : C'est doux, c'est neuf, c'est Jay, Marmotte et Lâm qui sont en laine

Скачать через торрент [SERIAL] Оранжевый - хит сезона Orange Is the New Black бесплатно русская версия torrent активатор

Статистика раздачи
Размер:  13.25 GB   |    Зарегистрирован:  2 года 11 месяцев   |    .torrent скачан:  401 раз   |   
Раздают:  1  
   
загрузка...
 
Автор Сообщение

Galfimbul

avatar Galfimbul


Оранжевый - хит сезона / Orange Is the New Black
Год выпуска: 2013-2015
Страна: США
Жанр: драма, комедия, криминал
Продолжительность: по ~ 00:51:00
Перевод: Профессиональный (многоголосый, закадровый от NewStudio)
Оригинальная дорожка: Нет
Cубтитры: Нет
Режиссер: Эндрю МакКарти, Майкл Трим, Фил Абрахам
В ролях: Тейлор Шиллинг, Майкл Харни, Кейт Малгрю, Даниэль Брукс, Узо Адуба, Даша Поланко, Самира Уайли, Ник Сэндоу, Селенис Лейва, Лиа ДеЛария и др.

Описание: Пайпер Чепмен — обычная жительница Коннектикута. Она любит свою благополучную жизнь и все её приятные мелочи. Душ по утрам, красивый завтрак, занятия любовью. Но случается так, что благодаря своему мимолетному увлечению крупным наркоторговцем, Пайпер оказывается заключенной в тюрьму на долгие пятнадцать месяцев. Отныне ей необходимо не только привыкнуть к новому окружению, но и просто — выжить.

Качество: WEBRip
Формат: MP4
Видео: AVC, 640x360 (16:9), 700 kbps, 23.976 fps
Аудио 1: Русский, AAC, 2 ch, 48 kHz, 128 kbps [MVO NewStudio]
Сезон 1 2013, эпизодов: 13
Эпизод 1 | Я была не готова (I Wasn't Ready)
Эпизод 2 | Прямо в сиську (Tit Punch)
Эпизод 3 | В просьбе о лесбиянстве отказано (Lesbian Request Denied)
Эпизод 4 | Воображаемые враги (Imaginary Enemies)
Эпизод 5 | Оцыпленение (The Chickening)
Эпизод 6 | Женсовет (WAC Pack)
Эпизод 7 | Кровавый пончик (Blood Donut)
Эпизод 8 | Московская ослиха (Moscow Mule)
Эпизод 9 | День благохренения (Fucksgiving)
Эпизод 10 | Бора Бора Бора (Bora Bora Bora)
Эпизод 11 | Высокие мужчины с душой (Tall Men with Feelings)
Эпизод 12 | Дважды на грабли (Fool Me Once)
Эпизод 13 | Безумие не излечимо (Can't Fix Crazy)
Сезон 2 2014, эпизодов: 13
Эпизод 1 | Птичка хочет пить (Thirsty Bird)
Эпизод 2 | На вид голубой, на вкус красный (Looks Blue, Tastes Red)
Эпизод 3 | Объятия могут быть обманчивы (Hugs Can Be Deceiving)
Эпизод 4 | Совершенно иная дыра (A Whole Other Hole)
Эпизод 5 | Город с заниженной самооценкой (Low Self Esteem City)
Эпизод 6 | У тебя тоже есть пицца (You Also Have a Pizza)
Эпизод 7 | Комик Санс (Comic Sans)
Эпизод 8 | Горшки правильного размера (Appropriately Sized Pots)
Эпизод 9 | 40 унций отпуска (40 OZ of Furlough)
Эпизод 10 | Маленькая усатая мразь (Little Mustachioed Shit)
Эпизод 11 | Отдохните от своих ценностей (Take a Break from Your Values)
Эпизод 12 | Произошли изменения (It Was the Change)
Эпизод 13 | Мы - вежливые люди с манерами (We Have Manners. We're Polite.)
Сезон 3 2015, эпизодов: 13
Эпизод 1 | День матери (Mother's Day)
Эпизод 2 | Bed Bugs and Beyond
Эпизод 3 | Empathy Is a Boner Killer
Эпизод 4 | Finger in the Dyke
Эпизод 5 | Fake It Till You Fake It Some More
Эпизод 6 | Ching Chong Chang
Эпизод 7 | Tongue-Tied
Эпизод 8 | Fear, and Other Smells
Эпизод 9 | Where My Dreidel At
Эпизод 10 | A Tittin' and a Hairin'
Эпизод 11 | Мы можем быть героями (We Can Be Heroes)
Эпизод 12 | Don't Make Me Come Back There
Эпизод 13 | Trust No Bitch
x264 [info]: x264 [info]: frame I:982 Avg QP:16.48 size: 29620
x264 [info]: frame P:24463 Avg QP:19.69 size: 7129
x264 [info]: frame B:48054 Avg QP:23.22 size: 1347

x264 [total]: encoded 73499 frames, 121.31 fps, 699.90 kb/s
General
Complete name : X:\Всё для мобильных телефонов и КПК\Видео\Orange Is the New Black S01-03 (2013-2015)\Season 1\Orange.Is.the.New.Black.s01e01.WEBRip.NewStudio.mp4
Format : MPEG-4
Format profile : Base Media
Codec ID : isom
File size : 304 MiB
Duration : 51mn 5s
Overall bit rate mode : Variable
Overall bit rate : 832 Kbps
Encoded date : UTC 2015-07-21 06:39:29
Tagged date : UTC 2015-07-21 06:39:29

Video
ID : 1
Format : AVC
Format/Info : Advanced Video Codec
Format profile : [email protected]
Format settings, CABAC : Yes
Format settings, ReFrames : 4 frames
Codec ID : avc1
Codec ID/Info : Advanced Video Coding
Duration : 51mn 5s
Bit rate : 700 Kbps
Maximum bit rate : 2 982 Kbps
Width : 640 pixels
Height : 360 pixels
Display aspect ratio : 16:9
Frame rate mode : Constant
Frame rate : 23.976 fps
Color space : YUV
Chroma subsampling : 4:2:0
Bit depth : 8 bits
Scan type : Progressive
Bits/(Pixel*Frame) : 0.127
Stream size : 256 MiB (84%)
Title : [email protected]-DEV-rev248-g39d5978-master
Writing library : x264 core 146 r2538 121396c
Encoding settings : cabac=1 / ref=3 / deblock=1:0:0 / analyse=0x3:0x113 / me=hex / subme=7 / psy=1 / psy_rd=1.00:0.00 / mixed_ref=1 / me_range=16 / chroma_me=1 / trellis=1 / 8x8dct=1 / cqm=0 / deadzone=21,11 / fast_pskip=1 / chroma_qp_offset=-2 / threads=6 / lookahead_threads=1 / sliced_threads=0 / nr=0 / decimate=1 / interlaced=0 / bluray_compat=0 / constrained_intra=0 / bframes=3 / b_pyramid=2 / b_adapt=1 / b_bias=0 / direct=1 / weightb=1 / open_gop=0 / weightp=2 / keyint=250 / keyint_min=23 / scenecut=40 / intra_refresh=0 / rc_lookahead=40 / rc=2pass / mbtree=1 / bitrate=700 / ratetol=1.0 / qcomp=0.60 / qpmin=0 / qpmax=69 / qpstep=4 / cplxblur=20.0 / qblur=0.5 / ip_ratio=1.40 / aq=1:1.00
Encoded date : UTC 2015-07-21 06:39:29
Tagged date : UTC 2015-07-21 06:39:34

Audio
ID : 2
Format : AAC
Format/Info : Advanced Audio Codec
Format profile : LC
Codec ID : 40
Duration : 51mn 5s
Bit rate mode : Variable
Bit rate : 128 Kbps
Maximum bit rate : 147 Kbps
Channel(s) : 2 channels
Channel positions : Front: L R
Sampling rate : 48.0 KHz
Compression mode : Lossy
Stream size : 46.8 MiB (15%)
Encoded date : UTC 2015-07-21 06:38:24
Tagged date : UTC 2015-07-21 06:39:34


Трекер:  [ 31-Июл-2015 11:00 ]

  

Скачать .torrent

Размер .torrent файла 37 KB


Размер: 13.25 GB
Хэш (hash) релиза: 1d97e4117a08104db740a7757b84e0bbd2135fd2

Еще никто не оставлял запись к записи скачать торрент [SERIAL] Оранжевый - хит сезона Orange Is the New Black . Будь первым!

!Обратная связь