ANTONIO JOSE, CALI & EL DANDEE | Karen Gillan | Naughty America VR

Скачать через торрент [VIDEO] Сумрачный самурай Сумеречный самурай бесплатно русская версия torrent активатор

Статистика раздачи
Размер:  1.41 GB   |    Зарегистрирован:  2 года 11 месяцев   |    .torrent скачан:  37 раз   |   
Раздают:  1  
   
загрузка...
 
Автор Сообщение

Galfimbul

avatar Galfimbul


Сумрачный самурай / Сумеречный самурай / Tasogare Seibei / The Twilight Samurai

Год выпуска: 2002
Страна: Япония
Жанр: Драма, мелодрама
Продолжительность: 02:09:02
Перевод: Русский | Профессиональный (многоголосый, закадровый) "Кино без границ"
Cубтитры: нет
Режиссер: Ёдзи Ямада / Yôji Yamada
Сценаристы: Ёдзи Ямада / Yôji Yamada, Ёситака Асама / Yoshitaka Asama, Шуухей Фуджисава / Shûhei Fujisawa
Оператор: Муцуо Наганума / Mutsuo Naganuma
Монтажер: Ивао Исий / Iwao Ishii
Композитор: Исао Томита / Isao Tomita
Оператор: Муцуо Наганума / Mutsuo Naganuma
В ролях: Хироюки Санада / Hiroyuki Sanada (Seibei Iguchi), Риэ Миядзава / Rie Miyazawa (Tomoe Iinuma), Нэндзи Кобаяси / Nenji Kobayashi (Choubei Kusaka), Рен Осуги / Ren Osugi (Toyotarou Kouda), Мицуру Фукикоси / Mitsuru Fukikoshi (Michinojo Iinuma), Канако Фукаура / Kanako Fukaura, Хироши Канбе / Hiroshi Kanbe (Naota), Мики Ито / Miki Itô (Kayano Iguchi) и другие .
Бюджет: $5 000 000
Сборы в США: $559765
Зрители: 18.5 тыс., 13.4 тыс., 11.7 тыс.
Премьера (мир): 2 ноября 2002
Премьера (РФ): 6 ноября 2003, «Кино без границ», «Пан Терра»
Релиз на DVD: 22 июня 2004, «Ruscico»
Описание: История Сейбея — скромного самурая низшего ранга и его семьи, живших в эпоху смуты. Сейбей победил в поединке противника деревянным мечом, и когда об этом распространилась молва, он против своей воли оказался вовлеченным в конфликт внутри самурайского клана и получает приказ сюзерена убить такого же, как и он сам, вассала…
Релиз группы
Качество: HDRip / [url=...3470509]BDRip 720p[/url]
Формат: MP4
Видео кодек: H.264
Аудио кодек: AAC
Видео: 960x520 AR:1.85 1435 kbps 23.976 fps
Аудио: [Русский] 2ch 48 kHz 128 kbps - [MVO] "Кино без границ"
...last pass...

x264.exe: --pass 2 --bitrate 1435 --preset medium --profile high --level 4.1 --ref 9 --deblock -3:-2 --merange 24 --bframes 7 --direct auto --b-adapt 2 --trellis 2 --no-fast-pskip --no-dct-decimate --psy-rd 1.00:0.15 --subme 11 --me umh --rc-lookahead 60 --min-keyint 25 --keyint 240 --colorprim bt709 --transfer bt709 --colormatrix bt709 --sar 1:1 --stats "E:\Tasogare.Seibei.2002.720p.BluRay.DD5.1.x264.HDCLUB.log" --output "E:\Tasogare.Seibei.2002.720p.BluRay.DD5.1.x264.HDCLUB.mp4" "J:\Temp\0276.avs"

avs [info]: 960x520p 1:1 @ 2500000/104271 fps (cfr)
x264 [info]: using SAR=1/1
x264 [info]: using cpu capabilities: MMX2 SSE2Fast SSSE3 SSE4.2 LZCNT
x264 [info]: profile High, level 4.1

x264 [info]: frame I:923 Avg QP:14.96 size: 78308
x264 [info]: frame P:34765 Avg QP:18.07 size: 21174
x264 [info]: frame B:149950 Avg QP:20.96 size: 3872
x264 [info]: consecutive B-frames: 0.9% 1.1% 3.5% 7.3% 11.9% 70.4% 4.5% 0.4%
x264 [info]: mb I I16..4: 7.9% 74.9% 17.2%
x264 [info]: mb P I16..4: 0.1% 3.2% 0.4% P16..4: 35.1% 42.9% 16.9% 0.0% 0.0% skip: 1.3%
x264 [info]: mb B I16..4: 0.0% 0.2% 0.0% B16..8: 36.3% 14.2% 1.8% direct: 2.5% skip:45.0% L0:44.1% L1:47.6% BI: 8.3%
x264 [info]: 8x8 transform intra:82.7% inter:54.3%
x264 [info]: direct mvs spatial:98.9% temporal:1.1%
x264 [info]: coded y,uvDC,uvAC intra: 95.2% 84.2% 63.7% inter: 16.6% 14.0% 7.3%
x264 [info]: i16 v,h,dc,p: 14% 7% 31% 48%
x264 [info]: i8 v,h,dc,ddl,ddr,vr,hd,vl,hu: 13% 9% 9% 9% 13% 12% 12% 11% 12%
x264 [info]: i4 v,h,dc,ddl,ddr,vr,hd,vl,hu: 15% 8% 5% 9% 14% 14% 12% 11% 12%
x264 [info]: i8c dc,h,v,p: 44% 24% 19% 14%
x264 [info]: Weighted P-Frames: Y:2.0% UV:0.5%
x264 [info]: ref P L0: 41.3% 8.1% 20.4% 7.3% 7.2% 4.9% 5.2% 2.5% 2.9% 0.2% 0.0%
x264 [info]: ref B L0: 78.4% 10.2% 4.4% 2.4% 1.7% 1.5% 1.0% 0.5%
x264 [info]: ref B L1: 95.7% 4.3%
x264 [info]: kb/s:1435.25

x264 [total]: encoded 185638 frames, 6.48 fps, 1435.25 kb/s

GeneralComplete name : E:\Torrents\Tasogare.Seibei.2002.HDRip.x264.960x.rip by Frost O.S.mp4Format : MPEG-4Format profile : Base MediaCodec ID : isomFile size : 1.41 GiBDuration : 2h 9mnOverall bit rate mode : VariableOverall bit rate : 1 567 KbpsMovie name : Tasogare Seibei 2002 HDRip x264 960x rip by Frost O SPerformer : Ёдзи ЯмадаGenre : DramaContentType : Short FilmRecorded date : November 2, 2002Encoded date : UTC 2015-07-24 15:09:51Tagged date : UTC 2015-07-24 15:14:33Writing application : MkvToMp4 version: 0.224 (x64)Cover : YesComment : rip by Frost O.SLongDescription : История Сейбея — скромного самурая низшего ранга и его семьи, живших в эпоху смуты. Сейбей победил в поединке противника деревянным мечом, и когда об этом распространилась молва, он против своей воли оказался вовлеченным в конфликт внутри самурайского клана и получает приказ сюзерена убить такого же, как и он сам, вассала…ContentRating : ru-movie|12+|200|

VideoID : 1Format : AVCFormat/Info : Advanced Video CodecFormat profile : [email protected] settings, CABAC : YesFormat settings, ReFrames : 9 framesCodec ID : avc1Codec ID/Info : Advanced Video CodingDuration : 2h 9mnBit rate : 1 435 KbpsMaximum bit rate : 6 369 KbpsWidth : 960 pixelsHeight : 520 pixelsDisplay aspect ratio : 1.85:1Frame rate mode : ConstantFrame rate : 23.976 fpsColor space : YUVChroma subsampling : 4:2:0Bit depth : 8 bitsScan type : ProgressiveBits/(Pixel*Frame) : 0.120Stream size : 1.29 GiB (92%)Writing library : x264 core 130 r2273 b3065e6Encoding settings : cabac=1 / ref=9 / deblock=1:-3:-2 / analyse=0x3:0x113 / me=umh / subme=11 / psy=1 / psy_rd=1.00:0.15 / mixed_ref=1 / me_range=24 / chroma_me=1 / trellis=2 / 8x8dct=1 / cqm=0 / deadzone=21,11 / fast_pskip=0 / chroma_qp_offset=-3 / threads=3 / lookahead_threads=1 / sliced_threads=0 / nr=0 / decimate=0 / interlaced=0 / bluray_compat=0 / constrained_intra=0 / bframes=7 / b_pyramid=2 / b_adapt=2 / b_bias=0 / direct=3 / weightb=1 / open_gop=0 / weightp=2 / keyint=240 / keyint_min=25 / scenecut=40 / intra_refresh=0 / rc_lookahead=60 / rc=2pass / mbtree=1 / bitrate=1435 / ratetol=1.0 / qcomp=0.60 / qpmin=0 / qpmax=69 / qpstep=4 / cplxblur=20.0 / qblur=0.5 / ip_ratio=1.40 / aq=1:1.00Language : EnglishEncoded date : UTC 2015-07-24 15:09:51Tagged date : UTC 2015-07-24 15:11:52Color primaries : BT.709Transfer characteristics : BT.709Matrix coefficients : BT.709

AudioID : 2Format : AACFormat/Info : Advanced Audio CodecFormat profile : LCCodec ID : 40Duration : 2h 9mnBit rate mode : VariableBit rate : 128 KbpsMaximum bit rate : 135 KbpsChannel(s) : 2 channelsChannel positions : Front: L RSampling rate : 48.0 KHzCompression mode : LossyStream size : 118 MiB (8%)Title : [MVO] Kino bez granicLanguage : RussianEncoded date : UTC 2015-07-24 15:11:40Tagged date : UTC 2015-07-24 15:11:52


Трекер:  [ 31-Июл-2015 11:00 ]

  

Скачать .torrent

Размер .torrent файла 14 KB


Размер: 1.41 GB
Хэш (hash) релиза: 8450d647361d84de496177405fa90f0ab5f08f6b

Еще никто не оставлял запись к записи скачать торрент [VIDEO] Сумрачный самурай Сумеречный самурай . Будь первым!

!Обратная связь