Recovery Boys | El Chapo | The Empire Strikes Back

Скачать через торрент [MULTSERIAL] Кунг-фу Панда: Удивительные легенды Kung Fu Panda: Legends of Awesomeness бесплатно русская версия torrent активатор

Статистика раздачи
Размер:  8.74 GB   |    Зарегистрирован:  2 года 11 месяцев   |    .torrent скачан:  96 раз   |   
Раздают:  1  
   
загрузка...
 
Автор Сообщение

Galfimbul

avatar Galfimbul


Кунг-фу Панда: Удивительные легенды / Kung Fu Panda: Legends of Awesomeness
Год выпуска: 2011-2014
Страна: США
Жанр: мультфильм, боевик, комедия, приключения, семейный
Продолжительность: по ~ 00:22:00
Перевод: Профессиональный (полное дублирование)
Оригинальная дорожка: Нет
Cубтитры: Нет
Режиссер: Майкл Маллен, Лэйн Луэрас, Хуан Хосе Меса-Леон
В ролях:Мик Вингерт, Кари Уолгрен, Фред Татаскьор, Макс Кох, Джеймс Си, Амир Талай, Люси Лью, Джеймс Хонг, Питер Хатингс, Джон Ди Маджио,

Описание: Сериал рассказывает о продолжении приключений Панды По, о том, как он тренируется, защищается, борется, учит и учится, говорит слишком много и выступает в роли нового героя Долины Мира. И теперь, живя вместе с Неистовой Пятеркой, По придется взять на себя много новых обязанностей, ведь он Воин Дракона.

Качество: WEB-DLRip
Формат: MP4
Видео: AVC, 640x360 (16:9), 700 kbps, 23.976 fps
Аудио 1: Русский, AAC, 2 ch, 48 kHz, 128 kbps [MVO NewStudio]
Сезон 1 2011, эпизодов: 26
Эпизод 1 | Жало Скорпиона | Scorpion's Sting
Эпизод 2 | Принцесса и По | The Princess and the Po
Эпизод 3 | Липкое дело | Sticky Situation
Эпизод 4 | Цепная реакция | Chain Reaction
Эпизод 5 | Мозгобой дрожащего пальца | Fluttering Finger Mindslip
Эпизод 6 | Хороший крокодил, плохой крокодил | Good Croc, Bad Croc
Эпизод 7 | Герой родного города | Hometown Hero
Эпизод 8 | Панда за решёткой | Jailhouse Panda
Эпизод 9 | Возвращение совы | Owl Be Back
Эпизод 10 | Плохой По | Bad Po
Эпизод 11 | Загляденье | Sight for Sore Eyes
Эпизод 12 | Месть носорога | Rhino's Revenge
Эпизод 13 | Мастер Пинг | Master Ping
Эпизод 14 | Призрак Угвея | Ghost of Oogway
Эпизод 15 | Кунг-фу малыш | The Kung Fu Kid
Эпизод 16 | Повелительницы теней | Ladies of the Shade
Эпизод 17 | Братишка По | Big Bro Po
Эпизод 18 | Фанаты По | Po Fans Out
Эпизод 19 | День поединка | Challenge Day
Эпизод 20 | Мой любимый Яо | My Favorite Yao
Эпизод 21 | Старики — помощники | In with the Old
Эпизод 22 | Герой из прошлого | Has-Been Hero
Эпизод 23 | Жало любви | Love Stings
Эпизод 24 | Трофей героя | Hall of Lame
Эпизод 25 | Папа-проходимец | Father Crime
Эпизод 26 | Всё дело в Обезьяне | Monkey in the Middle
Сезон 2 2012, эпизодов: 25
Эпизод 1 | Кунг-фу нянька | Kung Fu Day Care
Эпизод 2 | Королевская боль | Royal Pain
Эпизод 3 | По опасней всех | The Most Dangerous Po
Эпизод 4 | По, который закричал «призрак» | The Po Who Cried Ghost
Эпизод 5 | Кунг-туфли | Kung Shoes
Эпизод 6 | Близкие враги | Bosom Enemies
Эпизод 7 | Выход дракона | Enter the Dragon
Эпизод 8 | Мастер и панда | Master and the Panda
Эпизод 9 | Настоящее время | Present Tense
Эпизод 10 | Возвращение Шифу | Shifu's Back
Эпизод 11 | Терра Котта | Terror Cotta
Эпизод 12 | Духовные сферы учителя Диня | The Spirit Orbs of Master Ding
Эпизод 13 | Мальтийский богомол | The Maltese Mantis
Эпизод 14 | по приглашению | Invitation Only
Эпизод 15 | Полуночный странник | The Midnight Stranger
Эпизод 16 | Догнать посыльного | Shoot the Messenger
Эпизод 17 | История о Тигрице | Tigress Tale
Эпизод 18 | Журавль | Crane on a Wire
Эпизод 19 | Тайный музей кунг-фу | The Secret Museum of Kung Fu
Эпизод 20 | Невеста По | Bride of Po
Эпизод 21 | Пятерых достаточно | Five Is Enough
Эпизод 22 | Мама не разрешает мне заниматься кунг-фу | Mama Told Me Not to Kung Fu
Эпизод 23 | Тайный обожатель | Secret Admirer
Эпизод 24 | Чи-Лин | Qilin Time
Эпизод 25 | Гигант | Huge
Сезон 3 2013, эпизодов: 27
Эпизод 1 | Бывшая подружка Шифу | Shifu's Ex
Эпизод 2 | Лапшичные войны | War of the Noodles
Эпизод 3 | The Break-Up
Эпизод 4 | Сила мысли | Mind Over Manners
Эпизод 5 | Тысяча и двадцать вопросов | A Thousand and Twenty Questions
Эпизод 6 | Путь креветки | The Way of the Prawn
Эпизод 7 | Рот на замке | Mouth Off
Эпизод 8 | Зуб змеи | Serpent's Tooth
Эпизод 9 | Крёстный гусь | The Goosefather
Эпизод 10 | По поднимает кошелёк | Po Picks a Pocket
Эпизод 11 | Ураганный крокодил | Croc You Like a Hurricane
Эпизод 12 | Сумасшедшая любовная штучка Линг | Crazy Little Ling Called Love
Эпизод 13 | Кунг-фу клуб | Kung Fu Club
Эпизод 14 | Игра голода | The Hunger Game
Эпизод 15 | во времени | A Stitch in Time
Эпизод 16 | Извечный аккорд | Eternal Chord
Эпизод 17 | Преемник Яо | Apocalypse Yao
Эпизод 18 | Истинный Воин Дракона | The Real Dragon Warrior
Эпизод 19 | Первая Пятёрка | The First Five
Эпизод 20 | Указ Императора | Emperor's Rule
Эпизод 21 | Молодёжь против | Youth in Re-Volt
Эпизод 22 | Нашествие долгоносиков | See No Weevil
Эпизод 23 | Лицо страха | Face Full of Fear
Эпизод 24 | Cвирепые и сердитые | Forsaken and Furious
Эпизод 25 | Зов природы | Camp Ping
Эпизод 26 | Кроко-По | Po the Croc
Эпизод 27 | Гусиная охота | Goose Chase
x264 [info]: frame I:469 Avg QP:16.41 size: 33061
x264 [info]: frame P:12531 Avg QP:19.72 size: 6877
x264 [info]: frame B:21335 Avg QP:23.65 size: 1109

x264 [total]: encoded 34335 frames, 140.90 fps, 700.23 kb/s
General
Complete name : C:\Users\Vitalik\Videos\Новая папка\Эпизод 1. Жало скорпиона.mp4
Format : MPEG-4
Format profile : Base Media
Codec ID : isom
File size : 142 MiB
Duration : 23mn 52s
Overall bit rate mode : Variable
Overall bit rate : 832 Kbps
Encoded date : UTC 2015-07-23 19:33:26
Tagged date : UTC 2015-07-23 19:33:26

Video
ID : 1
Format : AVC
Format/Info : Advanced Video Codec
Format profile : [email protected]
Format settings, CABAC : Yes
Format settings, ReFrames : 4 frames
Codec ID : avc1
Codec ID/Info : Advanced Video Coding
Duration : 23mn 52s
Bit rate : 700 Kbps
Maximum bit rate : 3 623 Kbps
Width : 640 pixels
Height : 360 pixels
Display aspect ratio : 16:9
Frame rate mode : Constant
Frame rate : 23.976 fps
Color space : YUV
Chroma subsampling : 4:2:0
Bit depth : 8 bits
Scan type : Progressive
Bits/(Pixel*Frame) : 0.127
Stream size : 120 MiB (84%)
Title : [email protected]-DEV-rev248-g39d5978-master
Writing library : x264 core 146 r2538 121396c
Encoding settings : cabac=1 / ref=3 / deblock=1:0:0 / analyse=0x3:0x113 / me=hex / subme=7 / psy=1 / psy_rd=1.00:0.00 / mixed_ref=1 / me_range=16 / chroma_me=1 / trellis=1 / 8x8dct=1 / cqm=0 / deadzone=21,11 / fast_pskip=1 / chroma_qp_offset=-2 / threads=6 / lookahead_threads=1 / sliced_threads=0 / nr=0 / decimate=1 / interlaced=0 / bluray_compat=0 / constrained_intra=0 / bframes=3 / b_pyramid=2 / b_adapt=1 / b_bias=0 / direct=1 / weightb=1 / open_gop=0 / weightp=2 / keyint=250 / keyint_min=23 / scenecut=40 / intra_refresh=0 / rc_lookahead=40 / rc=2pass / mbtree=1 / bitrate=700 / ratetol=1.0 / qcomp=0.60 / qpmin=0 / qpmax=69 / qpstep=4 / cplxblur=20.0 / qblur=0.5 / ip_ratio=1.40 / aq=1:1.00
Encoded date : UTC 2015-07-23 19:33:26
Tagged date : UTC 2015-07-23 19:33:28

Audio
ID : 2
Format : AAC
Format/Info : Advanced Audio Codec
Format profile : LC
Codec ID : 40
Duration : 23mn 52s
Bit rate mode : Variable
Bit rate : 128 Kbps
Maximum bit rate : 151 Kbps
Channel(s) : 2 channels
Channel positions : Front: L R
Sampling rate : 48.0 KHz
Compression mode : Lossy
Stream size : 21.8 MiB (15%)
Encoded date : UTC 2015-07-23 19:32:51
Tagged date : UTC 2015-07-23 19:33:28


Трекер:  [ 31-Июл-2015 11:00 ]

  

Скачать .torrent

Размер .torrent файла 27 KB


Размер: 8.74 GB
Хэш (hash) релиза: 6aeb6ee9d74292fea1327af89c8e8479bad8111b

Еще никто не оставлял запись к записи скачать торрент [MULTSERIAL] Кунг-фу Панда: Удивительные легенды Kung Fu Panda: Legends of Awesomeness . Будь первым!

!Обратная связь