Girl's Day - KiraKira SLIM | HD Before All Others (2017) | HD The Truth Beneath (2016)

Скачать через торрент [VIDEO] Остров бесплатно русская версия torrent активатор

Статистика раздачи
Размер:  403 MB   |    Зарегистрирован:  2 года 11 месяцев   |    .torrent скачан:  49 раз   |   
Раздают:  1  
   
загрузка...
 
Автор Сообщение

Galfimbul

avatar Galfimbul


Остров

Год выпуска: 2006

Страна: Россия
Жанр: Драма
Продолжительность: 01:54:26
Перевод: Не требуется
Cубтитры: нет

Режиссер: Павел Лунгин
В ролях: Петр Мамонов, Виктор Сухоруков, Дмитрий Дюжев, Юрий Кузнецов, Виктория Исакова, Нина Усатова, Яна Есипович, Ольга Демидова, Тимофей Трибунцев, Алексей Зеленский

Описание: Вторая мировая война. Баржу, на которой Анатолий и его старший товарищ Тихон перевозят уголь, захватывает немецкий сторожевой корабль. Вымаливая пощаду у немцев, Анатолий совершает предательство - расстреливает Тихона.
Немцы оставляют труса на заминированной барже, но благодаря помощи монахов, проживающих в монастыре на острове, ему удается выжить.
Проходят годы. Старца Анатолия почитают за праведную жизнь и поистине чудесную помощь, которую он оказывает приехавшим сюда людям.
Однако страшный грех убийства, совершенный им во время войны, не дает ему покоя. Чувствуя приближение своей кончины, Анатолий готовится к смерти и пока не знает,что скоро будет прощен...

Качество: HDRip
Формат: MP4
Видео: AVC, 480x208 (2.35:1), 360 kbps, 23.976 fps
Аудио: AAC, 2 ch, 48.0 khz, 128 kbps
GeneralНазвание : D:\Видео\Рип\480 mp4\Rus\Ostrov.mp4Формат : MPEG-4Формат profile : Base MediaКодек ID : isomРазмер файла : 403 MiBДлительность : 1h 54mnОбщий Битрейт mode : VariableОбщий Битрейт : 492 KbpsEncoded date : UTC 2015-04-14 15:54:52Tagged date : UTC 2015-04-14 15:54:52

VideoID : 1Формат : AVCФормат/Info : Advanced Video КодекФормат profile : [email protected]Формат настройки, CABAC : YesФормат настройки, ReFrames : 8 framesКодек ID : avc1Кодек ID/Info : Advanced Video CodingДлительность : 1h 54mnБитрейт : 360 KbpsMaximum Битрейт : 3 349 KbpsWidth : 480 пикселейВысота : 208 пикселейСоотношение кадра : 2.35:1Частота кадров mode : ConstantЧастота кадров : 23.976 fpsЦветопередача : YUVChroma subsampling : 4:2:0Разрядность : 8 bitsТип сканирования : ProgressiveBits/(Pixel*Frame) : 0.150Размер потока : 295 MiB (73%)Writing library : x264 core 130 r2273 b3065e6Encoding настройки : cabac=1 / ref=8 / deblock=1:-1:-1 / analyse=0x3:0x133 / me=umh / subme=7 / psy=1 / psy_rd=1.00:0.10 / mixed_ref=1 / me_range=16 / chroma_me=1 / trellis=2 / 8x8dct=1 / cqm=0 / deadzone=21,11 / fast_pskip=0 / chroma_qp_offset=-3 / threads=3 / lookahead_threads=1 / sliced_threads=0 / nr=0 / decimate=1 / interlaced=0 / bluray_compat=0 / constrained_intra=0 / bframes=3 / b_pyramid=2 / b_adapt=2 / b_bias=0 / direct=3 / weightb=1 / open_gop=0 / weightp=2 / keyint=250 / keyint_min=23 / scenecut=40 / intra_refresh=0 / rc_lookahead=50 / rc=2pass / mbtree=1 / bitrate=360 / ratetol=1.0 / qcomp=0.60 / qpmin=0 / qpmax=69 / qpstep=4 / cplxblur=20.0 / qblur=0.5 / ip_ratio=1.40 / aq=1:1.00Encoded date : UTC 2015-04-14 15:54:52Tagged date : UTC 2015-04-14 15:55:31

AudioID : 2Формат : AACФормат/Info : Advanced Audio КодекФормат profile : LCКодек ID : 40Длительность : 1h 54mnБитрейт mode : VariableБитрейт : 128 KbpsMaximum Битрейт : 135 KbpsКаналы(s) : 2 каналаКаналы positions : Front: L RЧастота : 48.0 KHzРежим сжатия : LossyРазмер потока : 105 MiB (26%)Encoded date : UTC 2015-04-14 15:55:24Tagged date : UTC 2015-04-14 15:55:31


Трекер:  [ 31-Июл-2015 11:00 ]

  

Скачать .torrent

Размер .torrent файла 16 KB


Размер: 403 MB
Хэш (hash) релиза: 6a674bd4969aedf6ceb151cb0527ec1ed548f2f1

Еще никто не оставлял запись к записи скачать торрент [VIDEO] Остров . Будь первым!

!Обратная связь