• Samurai Girls (Anime) 6.5 | We The Jury | Stahlnetz

Скачать через торрент [DOC] Земля медведей Land of the Bears бесплатно русская версия torrent активатор

Статистика раздачи
Размер:  396 MB   |    Зарегистрирован:  2 года 11 месяцев   |    .torrent скачан:  35 раз   |   
Раздают:  1  
   
загрузка...
 
Автор Сообщение

Galfimbul

avatar Galfimbul


Земля медведей / Land of the Bears / Terre des ours

Год выпуска: 2013

Страна: Франция
Жанр: документальный, приключения, семейный
Продолжительность: 01:26:11
Перевод: Авторский (одноголосый закадровый)
Cубтитры: нет
Оригинальная аудиодорожка: нет

Режиссер: Гийом Венсан / Guillaume Vincent
В ролях: «Путешествие в загадочный мир Камчатки»
Описание: Документальный фильм рассказывающий о жизни медведей от самого младенчества, до перехода во взрослую жизнь, где никто и никогда больше будет помогать выжить в суровые и долгие зимы. Фильм пестрит прекрасными пейзажами нетронутой и девственной природы в различные времена года, где каждый сезон манит своей неповторимой красотой. В картине покажут жизнь одной семьи медведей, которая после длительной спячки пробуждается и идет по склонам прекрасных холмов к реке и далее к морю в поисках пропитания и накопления жира на предстоящий зимний сезон. И если же в новом сезоне не получится набрать много запасов жира, то зимой практически не остается ни каких шансов на выживание, ведь еды практически нет, а сил на поиски тратится куда больше чем весной.
Доп. информация: Доп. инфо о переводе: Сергей Корчак

Исходник (ссылка): [url]...5006495[/url]
Качество: HDRip
Формат: MP4
Видео: avc1 480x200; 2.40:1 23.976 fps; 512 Kbps
Аудио: AAC 128kbps 2ch 16bit 48000khz
GeneralComplete name : C:\Land.of.the.Bears.2013.HD-Rip.Rus._sergtor09.mp4Format : MPEG-4Format profile : Base MediaCodec ID : isomFile size : 396 MiBDuration : 1h 26mnOverall bit rate mode : VariableOverall bit rate : 642 KbpsEncoded date : UTC 2015-07-29 12:35:57Tagged date : UTC 2015-07-29 12:35:57

VideoID : 1Format : AVCFormat/Info : Advanced Video CodecFormat profile : [email protected] settings, CABAC : NoFormat settings, ReFrames : 6 framesCodec ID : avc1Codec ID/Info : Advanced Video CodingDuration : 1h 26mnBit rate : 512 KbpsMaximum bit rate : 1 810 KbpsWidth : 480 pixelsHeight : 200 pixelsDisplay aspect ratio : 2.40:1Frame rate mode : ConstantFrame rate : 23.976 fpsColor space : YUVChroma subsampling : 4:2:0Bit depth : 8 bitsScan type : ProgressiveBits/(Pixel*Frame) : 0.222Stream size : 315 MiB (80%)Writing library : x264 core 125 r2200 999b753Encoding settings : cabac=0 / ref=6 / deblock=1:-1:-1 / analyse=0x1:0x111 / me=tesa / subme=9 / psy=1 / psy_rd=1.00:0.00 / mixed_ref=0 / me_range=16 / chroma_me=1 / trellis=1 / 8x8dct=0 / cqm=0 / deadzone=21,11 / fast_pskip=0 / chroma_qp_offset=-2 / threads=3 / lookahead_threads=1 / sliced_threads=0 / nr=0 / decimate=0 / interlaced=0 / bluray_compat=0 / constrained_intra=0 / bframes=0 / weightp=0 / keyint=250 / keyint_min=23 / scenecut=40 / intra_refresh=0 / rc_lookahead=250 / rc=2pass / mbtree=1 / bitrate=512 / ratetol=1.0 / qcomp=0.60 / qpmin=0 / qpmax=69 / qpstep=4 / cplxblur=20.0 / qblur=0.5 / ip_ratio=1.40 / aq=1:1.00Encoded date : UTC 2015-07-29 12:35:57Tagged date : UTC 2015-07-29 12:37:17

AudioID : 2Format : AACFormat/Info : Advanced Audio CodecFormat profile : LCCodec ID : 40Duration : 1h 26mnBit rate mode : VariableBit rate : 128 KbpsMaximum bit rate : 170 KbpsChannel(s) : 2 channelsChannel positions : Front: L RSampling rate : 48.0 KHzCompression mode : LossyStream size : 78.9 MiB (20%)Encoded date : UTC 2015-07-29 12:37:13Tagged date : UTC 2015-07-29 12:37:17


Трекер:  [ 31-Июл-2015 11:00 ]

  

Скачать .torrent

Размер .torrent файла 62 KB


Размер: 396 MB
Хэш (hash) релиза: 63c787991b92d1c79aedfc8c1dc514ac25b696f6

Еще никто не оставлял запись к записи скачать торрент [DOC] Земля медведей Land of the Bears . Будь первым!

!Обратная связь