Reportages Découverte Fleur Australe Les Dangers De La Mer Rouge | Télécharger Part 41 | Meine Frau, die Wildnis und ich

Скачать через торрент [VIDEO] Мстители The Avengers бесплатно русская версия torrent активатор

Статистика раздачи
Размер:  1.53 GB   |    Зарегистрирован:  2 года 11 месяцев   |    .torrent скачан:  68 раз   |   
Раздают:  1  
   
загрузка...
 
Автор Сообщение

Galfimbul

avatar Galfimbul


МСТИТЕЛИ

Страна: США
Жанр: фантастика, боевик, триллер
Год выпуска: 2012
Продолжительность: 02:22:54
Перевод: Профессиональный (дублированный)
Режиссер: Джосс Уидон / Joss Whedon
В ролях: Роберт Дауни мл., Крис Эванс, Марк Руффало, Крис Хемсворт, Скарлетт Йоханссон, Джереми Реннер, Том Хиддлстон, Сэмюэл Л. Джексон, Кларк Грегг, Коби Смолдерс.

Локи, сводный брат Тора, возвращается, и в этот раз он не один. Земля на грани порабощения, и только лучшие из лучших могут спасти человечество.
Ник Фьюри, глава международной организации Щ. И. Т., собирает выдающихся поборников справедливости и добра, чтобы отразить атаку.
Под предводительством Капитана Америки Железный Человек, Тор, Невероятный Халк, Соколиный глаз и Чёрная Вдова вступают в войну с захватчиком.

Качество: HDRip| Формат: MP4| Видео кодек: XviD| Аудио кодек: AAC | Видео: XviD (1.2.2) 1400kbps 800x448 23.976fps | Аудио: AAC 128kbps 2ch 16bit 48000khz

Format : MPEG-4
Format profile : Base Media / Version 2
Codec ID : mp42
File size : 1.53 GiB
Duration : 2h 22mn
Overall bit rate mode : Variable
Overall bit rate : 1 536 Kbps
Encoded date : UTC 2012-10-15 09:01:22
Tagged date : UTC 2012-10-15 09:01:22
Video
ID : 201
Format : MPEG-4 Visual
Format profile : Advanced [email protected]
Format settings, BVOP : No
Format settings, QPel : No
Format settings, GMC : No warppoints
Format settings, Matrix : Default (H.263)
Codec ID : 20
Duration : 2h 22mn
Bit rate mode : Variable
Bit rate : 1 406 Kbps
Maximum bit rate : 7 319 Kbps
Width : 800 pixels
Height : 448 pixels
Display aspect ratio : 16:9
Frame rate mode : Variable
Frame rate : 23.940 fps
Original frame rate : 23.976 fps
Minimum frame rate : 0.413 fps
Maximum frame rate : 23.976 fps
Color space : YUV
Chroma subsampling : 4:2:0
Bit depth : 8 bits
Scan type : Progressive
Compression mode : Lossy
Bits/(Pixel*Frame) : 0.164
Stream size : 1.40 GiB (92%)
Writing library : XviD 1.2.1 (UTC 2008-12-04)
Encoded date : UTC 2012-10-15 09:01:22
Tagged date : UTC 2012-10-15 09:02:48
Audio
ID : 101
Format : AAC
Format/Info : Advanced Audio Codec
Format profile : LC
Codec ID : 40
Duration : 2h 22mn
Bit rate mode : Variable
Bit rate : 128 Kbps
Maximum bit rate : 176 Kbps
Channel(s) : 2 channels
Channel positions : Front: L R
Sampling rate : 48.0 KHz
Compression mode : Lossy
Stream size : 131 MiB (8%)
Encoded date : UTC 2012-10-15 09:02:19
Tagged date : UTC 2012-10-15 09:02:48


Трекер:  [ 27-Июл-2015 12:00 ]

  

Скачать .torrent

Размер .torrent файла 16 KB


Размер: 1.53 GB
Хэш (hash) релиза: d25e640eb2b9f36f8a987c5a7c81b2ca56400055

Торренты, похожие на [VIDEO] Мстители The Avengers скачать торрент

Форум Название Автор Размер S L Добавлен
Видео (Фильмы/Клипы) ·· [VIDEO] Мстители / The Avengers (Джосс Уидон / Joss Whedon) [2012, фантастика, фэнтези, боевик, приключения, BDRip] [MP4, 1280x] Galfimbul 24954499942.32 GB 0 0 1452373704

00:08

10-Янв-16

Еще никто не оставлял запись к записи скачать торрент [VIDEO] Мстители The Avengers . Будь первым!

!Обратная связь