cara bobok althek | Midsummers Equation | Deadpool 2 2018 filme complete en español

Скачать через торрент [VIDEO] Форсаж 7 Furious Seven бесплатно русская версия torrent активатор

Статистика раздачи
Размер:  1.09 GB   |    Зарегистрирован:  3 года   |    .torrent скачан:  58 раз   |   
Раздают:  1  
   
загрузка...
 
Автор Сообщение

Galfimbul

avatar Galfimbul


Furious SevenФорсаж 7


Год выпуска: 2015
Страна: США
Жанр: боевик, триллер, криминал
Продолжительность: 02:17:21
Перевод: Профессиональный (полное дублирование) [Лицензия / iTunes]
Режиссер: James Wan

В ролях: Vin Diesel, Paul Walker, Jason Statham, Michelle Rodriguez, Jordana Brewster, Tyrese Gibson, Dwayne Johnson, Kurt Russell
Они покорили Токио и Рио, Лос-Анджелес и Лондон. Но мир больше не играет по их правилам. Зной арабских пустынь, неприлично высокие небоскребы, миллионы долларов на колесах и очень, очень знаменитый злодей. Скорость не знает границ.
Качество: WEB-DLRip ([i]WEB-DLRip 1080p)
Формат: MP4
Видео: AVC High L3.1, 800х328 (2.40:1), 994 Kbps, 23.976 fps
Аудио: AAC, 2 ch, 48 kHz, 132 Kbps[/i]

x264 [info]: frame I:3501  Avg QP:17.38  size: 28437
x264 [info]: frame P:61242 Avg QP:20.65  size:  8926
x264 [info]: frame B:132834 Avg QP:23.46  size:  2841
x264 [info]: consecutive B-frames:  5.8%  8.9% 14.4% 70.9%
x264 [info]: mb I  I16..4: 11.7% 61.5% 26.7%
x264 [info]: mb P  I16..4:  3.6% 13.8%  2.6%  P16..4: 37.3% 17.6% 10.3%  0.0%  0.0%    skip:14.8%
x264 [info]: mb B  I16..4:  0.3%  1.7%  0.4%  B16..8: 38.9%  8.4%  2.2%  direct: 4.2%  skip:43.9%  L0:39.1% L1:49.6% BI:11.2%
x264 [info]: 8x8 transform intra:68.0% inter:65.9%
x264 [info]: coded y,uvDC,uvAC intra: 70.8% 71.1% 33.6% inter: 18.1% 15.5% 1.2%
x264 [info]: i16 v,h,dc,p: 19% 25%  8% 48%
x264 [info]: i8 v,h,dc,ddl,ddr,vr,hd,vl,hu: 12% 12%  5%  8% 13% 12% 14% 10% 14%
x264 [info]: i4 v,h,dc,ddl,ddr,vr,hd,vl,hu: 12% 13%  4%  8% 13% 12% 14%  9% 14%
x264 [info]: i8c dc,h,v,p: 32% 33% 19% 16%
x264 [info]: Weighted P-Frames: Y:6.1% UV:3.5%
x264 [info]: ref P L0: 60.7% 14.3% 15.6%  9.0%  0.5%
x264 [info]: ref B L0: 88.5%  8.9%  2.6%
x264 [info]: ref B L1: 95.3%  4.7%
x264 [info]: kb/s:993.77

encoded 197577 frames, 60.14 fps, 993.77 kb/s

Format                      : MPEG-4
Format profile              : Base Media
Codec ID                    : isom
File size                   : 1.09 GiB
Duration                    : 2h 17mn
Overall bit rate mode       : Variable
Overall bit rate            : 1 134 Kbps
Movie name                  : Furious Seven
ContentType                 : Short Film
Encoded date                : UTC 2015-07-10 05:04:51
Tagged date                 : UTC 2015-07-10 05:05:31
Writing application         : MkvToMp4 version: 0.224 (x64)
Cover                       : Yes
Comment                     : |TORCHDK|

Video
ID                          : 1
Format                      : AVC
Format/Info                 : Advanced Video Codec
Format profile              : [email protected]
Format settings, CABAC      : Yes
Format settings, ReFrames   : 4 frames
Codec ID                    : avc1
Codec ID/Info               : Advanced Video Coding
Duration                    : 2h 17mn
Bit rate                    : 994 Kbps
Maximum bit rate            : 6 942 Kbps
Width                       : 800 pixels
Height                      : 328 pixels
Display aspect ratio        : 2.40:1
Frame rate mode             : Constant
Frame rate                  : 23.976 fps
Color space                 : YUV
Chroma subsampling          : 4:2:0
Bit depth                   : 8 bits
Scan type                   : Progressive
Bits/(Pixel*Frame)          : 0.158
Stream size                 : 976 MiB (88%)
Writing library             : x264 core 144 r2525 40bb568
Encoding settings           : cabac=1 / ref=3 / deblock=1:-1:-1 / analyse=0x3:0x113 / me=umh / subme=9 / psy=1 / psy_rd=1.00:0.00 / mixed_ref=1 / me_range=24 / chroma_me=1 / trellis=2 / 8x8dct=1 / cqm=0 / deadzone=21,11 / fast_pskip=1 / chroma_qp_offset=-2 / threads=12 / lookahead_threads=1 / sliced_threads=0 / nr=0 / decimate=1 / interlaced=0 / bluray_compat=0 / constrained_intra=0 / bframes=3 / b_pyramid=2 / b_adapt=2 / b_bias=0 / direct=1 / weightb=1 / open_gop=0 / weightp=2 / keyint=250 / keyint_min=23 / scenecut=40 / intra_refresh=0 / rc_lookahead=60 / rc=crf / mbtree=1 / crf=20.1 / qcomp=0.60 / qpmin=0 / qpmax=69 / qpstep=4 / ip_ratio=1.40 / aq=1:1.00
Language                    : English
Encoded date                : UTC 2015-07-10 05:04:51
Tagged date                 : UTC 2015-07-10 05:05:09

Audio
ID                          : 2
Format                      : AAC
Format/Info                 : Advanced Audio Codec
Format profile              : LC
Codec ID                    : 40
Duration                    : 2h 17mn
Bit rate mode               : Variable
Bit rate                    : 132 Kbps
Maximum bit rate            : 214 Kbps
Channel(s)                  : 2 channels
Channel positions           : Front: L R
Sampling rate               : 48.0 KHz
Compression mode            : Lossy
Stream size                 : 129 MiB (12%)
Language                    : Russian
Encoded date                : UTC 2015-07-10 05:05:04
Tagged date                 : UTC 2015-07-10 05:05:09


Трекер:  [ 12-Июл-2015 00:00 ]

  

Скачать .torrent

Размер .torrent файла 11 KB


Размер: 1.09 GB
Хэш (hash) релиза: edd0300c1e0af460a4e4377d874a73ca3d6b2f89

Еще никто не оставлял запись к записи скачать торрент [VIDEO] Форсаж 7 Furious Seven . Будь первым!

!Обратная связь