Tim Minchin | Betrayal 1. Sezon | Love Island 2015 S04E03 HDTV x264-JIVE mp4 27 minutes

Скачать через торрент [VIDEO] Верные друзья бесплатно русская версия torrent активатор

Статистика раздачи
Размер:  1.23 GB   |    Зарегистрирован:  3 года   |    .torrent скачан:  36 раз   |   
Раздают:  1  
   
загрузка...
 
Автор Сообщение

Galfimbul

avatar Galfimbul


Верные друзья

Год выпуска: 1954
Страна: СССР
Жанр: мелодрама, комедия
Продолжительность: 01:40:29
Перевод: Не требуется
Cубтитры: нет
Режиссер: Михаил Калатозов
Сценаристы: Александр Галич, Константин Исаев
Оператор: Марк Магидсон
Композитор: Тихон Хренников
В ролях: Василий Меркурьев, Борис Чирков, Александр Борисов, Алексей Грибов, Лилия Гриценко, Людмила Шагалова, Алексей Покровский, Юрий Саранцев, Георгий Георгиу, Николай Сморчков, Михаил Пуговкин, Григорий Белов, Георгий Гумилевский, Елена Вольская, Вера Бурлакова, Людмила Геника-Чиркова, Анатолий Дудоров, Маргарита Жарова, Константин Нассонов, Александр Лебедев, Ольга Маркина, Владимир Лепко, Елена Савицкая, Клавдия Козлёнкова, Лариса Матвеенко, Елизавета Уварова, Юрий Леонидов, Василий Корнуков, Иван Косых, Пётр Любешкин, Георгий Бударов, Иван Рыжов, Николай Парфёнов, Владимир Андреев, Зоя Степанова, Иван Кузнецов, Сергей Юртайкин, Всеволод Санаев, Александр Жуков, Владимир Ратомский, Алевтина Румянцева .
Зрители: 30.9 млн
Премьера (мир): 20 апреля 1954
Премьера (РФ): 6 апреля 2001
Релиз на DVD: 11 января 2011, «Парадиз Медиа»
Релиз на Blu-Ray: 8 апреля 2014, «Lizard Cinema Trade»
Описание: Когда-то давно на одной из московских окраин жили три товарища: Сашка-«кошачий парень», Борька — «чижик» и Васька — «индюк». Прошли годы. Чижик стал известным московским хирургом Чижовым, Сашка — профессором-животноводом Лапиным, Васька — академиком архитектуры Нестратовым, работающим на строительстве первых высоток столицы. Вспомнив данное когда-то друг другу обещание, верные друзья отправляются в плавание по реке на бревенчатом плоту. Для Лапина путешествие оказывается особенно счастливым: он встречает давно любимую и любящую его женщину..
Релиз группы
Качество: HDRip / [url=...4755242]BDRip 1080p[/url]
Формат: MP4
Видео кодек: H.264
Аудио кодек: AAC
Видео: 736x536 AR:1.373 1621 kbps 23.976 fps
Аудио: 2ch 48 kHz 128 kbps
...last pass...

x264.exe: --pass 2 --bitrate 1621 --preset medium --tune film --profile high --level 4.1 --ref 7 --merange 24 --bframes 7 --direct auto --b-adapt 2 --trellis 2 --no-fast-pskip --no-dct-decimate --subme 11 --me umh --rc-lookahead 60 --min-keyint 25 --keyint 240 --colorprim bt709 --transfer bt709 --colormatrix bt709 --sar 1:1 --stats "E:\Vernye.druzjya.1954.BDRip.1080p.log" --output "E:\Vernye.druzjya.1954.BDRip.1080p.mp4" "J:\Temp\0234.avs"

avs [info]: 736x536p 1:1 @ 2500000/104271 fps (cfr)
x264 [info]: using SAR=1/1
x264 [info]: using cpu capabilities: MMX2 SSE2Fast SSSE3 SSE4.2 LZCNT
x264 [info]: profile High, level 4.1

x264 [info]: frame I:780 Avg QP:16.35 size: 65547
x264 [info]: frame P:34194 Avg QP:19.86 size: 20317
x264 [info]: frame B:109592 Avg QP:23.92 size: 4342
x264 [info]: consecutive B-frames: 2.0% 2.9% 9.9% 33.0% 17.9% 31.9% 2.1% 0.4%
x264 [info]: mb I I16..4: 5.3% 66.2% 28.5%
x264 [info]: mb P I16..4: 0.4% 8.4% 2.0% P16..4: 31.8% 38.6% 16.3% 0.0% 0.0% skip: 2.5%
x264 [info]: mb B I16..4: 0.0% 1.1% 0.2% B16..8: 34.7% 16.5% 2.8% direct: 3.2% skip:41.5% L0:36.7% L1:48.2% BI:15.1%
x264 [info]: 8x8 transform intra:77.6% inter:58.9%
x264 [info]: direct mvs spatial:96.9% temporal:3.1%
x264 [info]: coded y,uvDC,uvAC intra: 93.6% 68.5% 33.5% inter: 21.8% 12.2% 4.7%
x264 [info]: i16 v,h,dc,p: 29% 13% 11% 47%
x264 [info]: i8 v,h,dc,ddl,ddr,vr,hd,vl,hu: 13% 10% 4% 9% 13% 12% 14% 12% 14%
x264 [info]: i4 v,h,dc,ddl,ddr,vr,hd,vl,hu: 14% 9% 3% 8% 14% 14% 14% 11% 13%
x264 [info]: i8c dc,h,v,p: 31% 31% 22% 16%
x264 [info]: Weighted P-Frames: Y:4.7% UV:1.8%
x264 [info]: ref P L0: 51.5% 15.9% 16.9% 4.8% 4.3% 3.0% 3.3% 0.4% 0.0%
x264 [info]: ref B L0: 87.4% 7.5% 2.8% 1.3% 0.7% 0.4%
x264 [info]: ref B L1: 95.3% 4.7%
x264 [info]: kb/s:1620.97

x264 [total]: encoded 144566 frames, 7.47 fps, 1620.97 kb/s
GeneralComplete name : E:\Torrents\Vernye druzjya.1954.HDRip.x264.960x.rip by Frost O.S.mp4Format : MPEG-4Format profile : Base MediaCodec ID : isomFile size : 1.23 GiBDuration : 1h 40mnOverall bit rate mode : VariableOverall bit rate : 1 753 KbpsMovie name : Vernye druzjya 1954 HDRip x264 960x rip by Frost O SPerformer : Михаил КалатозовGenre : ComedyContentType : Short FilmRecorded date : 20 апреля 1954Encoded date : UTC 2015-07-07 15:04:30Tagged date : UTC 2015-07-07 15:07:38Writing application : MkvToMp4 version: 0.224 (x64)Cover : YesComment : rip by Frost O.SLongDescription : Когда-то давно на одной из московских окраин жили три товарища: Сашка-«кошачий парень», Борька — «чижик» и Васька — «индюк». Прошли годы. Чижик стал известным московским хирургом Чижовым, Сашка — профессором-животноводом Лапиным, Васька — академиком архитектуры Нестратовым, работающим на строительстве первых высоток столицы. Вспомнив данное когда-то друг другу обещание, верные друзья отправляются в плавание по реке на бревенчатом плоту. Для Лапина путешествие оказывается особенно счастливым: он встречает давно любимую и любящую его женщину.ContentRating : ru-movie|0+|100|

VideoID : 1Format : AVCFormat/Info : Advanced Video CodecFormat profile : [email protected] settings, CABAC : YesFormat settings, ReFrames : 7 framesCodec ID : avc1Codec ID/Info : Advanced Video CodingDuration : 1h 40mnBit rate : 1 621 KbpsMaximum bit rate : 7 476 KbpsWidth : 736 pixelsHeight : 536 pixelsDisplay aspect ratio : 1.373Frame rate mode : ConstantFrame rate : 23.976 fpsColor space : YUVChroma subsampling : 4:2:0Bit depth : 8 bitsScan type : ProgressiveBits/(Pixel*Frame) : 0.171Stream size : 1.14 GiB (92%)Writing library : x264 core 130 r2273 b3065e6Encoding settings : cabac=1 / ref=7 / deblock=1:-1:-1 / analyse=0x3:0x113 / me=umh / subme=11 / psy=1 / psy_rd=1.00:0.15 / mixed_ref=1 / me_range=24 / chroma_me=1 / trellis=2 / 8x8dct=1 / cqm=0 / deadzone=21,11 / fast_pskip=0 / chroma_qp_offset=-3 / threads=3 / lookahead_threads=1 / sliced_threads=0 / nr=0 / decimate=0 / interlaced=0 / bluray_compat=0 / constrained_intra=0 / bframes=7 / b_pyramid=2 / b_adapt=2 / b_bias=0 / direct=3 / weightb=1 / open_gop=0 / weightp=2 / keyint=240 / keyint_min=25 / scenecut=40 / intra_refresh=0 / rc_lookahead=60 / rc=2pass / mbtree=1 / bitrate=1621 / ratetol=1.0 / qcomp=0.60 / qpmin=0 / qpmax=69 / qpstep=4 / cplxblur=20.0 / qblur=0.5 / ip_ratio=1.40 / aq=1:1.00Language : EnglishEncoded date : UTC 2015-07-07 15:04:30Tagged date : UTC 2015-07-07 15:05:28Color primaries : BT.709Transfer characteristics : BT.709Matrix coefficients : BT.709

AudioID : 2Format : AACFormat/Info : Advanced Audio CodecFormat profile : LCCodec ID : 40Duration : 1h 40mnBit rate mode : VariableBit rate : 128 KbpsMaximum bit rate : 135 KbpsChannel(s) : 2 channelsChannel positions : Front: L RSampling rate : 48.0 KHzCompression mode : LossyStream size : 92.0 MiB (7%)Language : RussianEncoded date : UTC 2015-07-07 15:05:15Tagged date : UTC 2015-07-07 15:05:28


Трекер:  [ 08-Июл-2015 13:00 ]

  

Скачать .torrent

Размер .torrent файла 13 KB


Размер: 1.23 GB
Хэш (hash) релиза: a13608e026a81a8aea42226f5e4f81d8903ce1a6

Торренты, похожие на [VIDEO] Верные друзья скачать торрент

Форум Название Автор Размер S L Добавлен
Видео (Фильмы/Клипы) ·· [VIDEO] Верные друзья (Михаил Калатозов) [1954, мелодрама, комедия, HDRip] [MP4, 480x] Galfimbul 438144222418 MB 0 0 1436361039

16:10

8-Июл-15

Еще никто не оставлял запись к записи скачать торрент [VIDEO] Верные друзья . Будь первым!

!Обратная связь