Eureka Seven Subtitle Indonesia | Episode 19 | Language Knowledge for Primary Teachers 4th edition

Скачать через торрент [VIDEO] Верные друзья бесплатно русская версия torrent активатор

Статистика раздачи
Размер:  418 MB   |    Зарегистрирован:  3 года   |    .torrent скачан:  33 раза   |   
Раздают:  1  
   
загрузка...
 
Автор Сообщение

Galfimbul

avatar Galfimbul


Верные друзья

Год выпуска: 1954
Страна: СССР
Жанр: мелодрама, комедия
Продолжительность: 01:40:29
Перевод: Не требуется
Cубтитры: нет
Режиссер: Михаил Калатозов
Сценаристы: Александр Галич, Константин Исаев
Оператор: Марк Магидсон
Композитор: Тихон Хренников
В ролях: Василий Меркурьев, Борис Чирков, Александр Борисов, Алексей Грибов, Лилия Гриценко, Людмила Шагалова, Алексей Покровский, Юрий Саранцев, Георгий Георгиу, Николай Сморчков, Михаил Пуговкин, Григорий Белов, Георгий Гумилевский, Елена Вольская, Вера Бурлакова, Людмила Геника-Чиркова, Анатолий Дудоров, Маргарита Жарова, Константин Нассонов, Александр Лебедев, Ольга Маркина, Владимир Лепко, Елена Савицкая, Клавдия Козлёнкова, Лариса Матвеенко, Елизавета Уварова, Юрий Леонидов, Василий Корнуков, Иван Косых, Пётр Любешкин, Георгий Бударов, Иван Рыжов, Николай Парфёнов, Владимир Андреев, Зоя Степанова, Иван Кузнецов, Сергей Юртайкин, Всеволод Санаев, Александр Жуков, Владимир Ратомский, Алевтина Румянцева .
Зрители: 30.9 млн
Премьера (мир): 20 апреля 1954
Премьера (РФ): 6 апреля 2001
Релиз на DVD: 11 января 2011, «Парадиз Медиа»
Релиз на Blu-Ray: 8 апреля 2014, «Lizard Cinema Trade»
Описание: Когда-то давно на одной из московских окраин жили три товарища: Сашка-«кошачий парень», Борька — «чижик» и Васька — «индюк». Прошли годы. Чижик стал известным московским хирургом Чижовым, Сашка — профессором-животноводом Лапиным, Васька — академиком архитектуры Нестратовым, работающим на строительстве первых высоток столицы. Вспомнив данное когда-то друг другу обещание, верные друзья отправляются в плавание по реке на бревенчатом плоту. Для Лапина путешествие оказывается особенно счастливым: он встречает давно любимую и любящую его женщину..
Релиз группы
Качество: HDRip / [url=...4755242]BDRip 1080p[/url]
Формат: MP4
Видео кодек: XviD
Аудио кодек: AAC
Видео: 440x320 AR:1.373 450 kbps 23.976 fps
Аудио: 2ch 48 kHz 128 kbps
GeneralComplete name : E:\Torrents\Vernye druzjya.1954.HDRip.XviD.480x.rip by Frost O.S.mp4Format : MPEG-4Format profile : Base Media / Version 2Codec ID : mp42File size : 418 MiBDuration : 1h 40mnOverall bit rate mode : VariableOverall bit rate : 581 KbpsEncoded date : UTC 2015-07-08 08:33:56Tagged date : UTC 2015-07-08 08:33:56

VideoID : 201Format : MPEG-4 VisualFormat profile : Advanced [email protected] settings, BVOP : YesFormat settings, QPel : NoFormat settings, GMC : No warppointsFormat settings, Matrix : CustomCodec ID : 20Duration : 1h 40mnBit rate mode : VariableBit rate : 450 KbpsMaximum bit rate : 2 335 KbpsWidth : 440 pixelsHeight : 320 pixelsDisplay aspect ratio : 1.375Frame rate mode : ConstantFrame rate : 23.976 fpsColor space : YUVChroma subsampling : 4:2:0Bit depth : 8 bitsScan type : ProgressiveCompression mode : LossyBits/(Pixel*Frame) : 0.133Stream size : 323 MiB (77%)Writing library : XviD 73Encoded date : UTC 2015-07-08 08:33:56Tagged date : UTC 2015-07-08 08:34:18

AudioID : 101Format : AACFormat/Info : Advanced Audio CodecFormat profile : LCCodec ID : 40Duration : 1h 40mnBit rate mode : VariableBit rate : 128 KbpsMaximum bit rate : 169 KbpsChannel(s) : 2 channelsChannel positions : Front: L RSampling rate : 48.0 KHzCompression mode : LossyStream size : 92.0 MiB (22%)Encoded date : UTC 2015-07-08 08:34:12Tagged date : UTC 2015-07-08 08:34:18


Трекер:  [ 08-Июл-2015 13:00 ]

  

Скачать .torrent

Размер .torrent файла 17 KB


Размер: 418 MB
Хэш (hash) релиза: 970da0f3ba06f3607c8584f01c120f8ef875b988

Торренты, похожие на [VIDEO] Верные друзья скачать торрент

Форум Название Автор Размер S L Добавлен
Видео (Фильмы/Клипы) ·· [VIDEO] Верные друзья (Михаил Калатозов) [1954, мелодрама, комедия, HDRip] [MP4, 960x] Galfimbul 13213086331.23 GB 0 0 1436361043

16:10

8-Июл-15

Еще никто не оставлял запись к записи скачать торрент [VIDEO] Верные друзья . Будь первым!

!Обратная связь