Mat Kearney - Face To Face | الصفحة التالية | Shirobako

Скачать через торрент [MULT] Том и Джерри: Шпионские игры Tom and Jerry: Spy Quest бесплатно русская версия torrent активатор

Статистика раздачи
Размер:  952 MB   |    Зарегистрирован:  3 года   |    .torrent скачан:  38 раз   |   
Раздают:  1  
   
загрузка...
 
Автор Сообщение

Galfimbul

avatar Galfimbul


Том и Джерри: Шпионские игры / Tom and Jerry: Spy Quest

Год выпуска: 2015
Страна: США
Жанр: мультфильм
Продолжительность: 01:12:25
Перевод: Профессиональный (многоголосый, закадровый) [iTunes]
Cубтитры: нет
Режиссер: Спайк Брандт / Spike Brandt, Тони Червоне / Tony Cervone
Роли озвучивали: Джефф Беннетт, Кори Бертон, Кэтрин Фиоре, Брэд Гэррет, Джесс Харнелл, Том Кенни, Билл Копп, Роб Полсен, Фрэнк Уэлкер, Билли Уэст и другие .
Описание: Ещё один день на пляже для проблемной парочки, пока Том и Джерри не сталкиваются со шпионами Джонни Квестом, Хаджи и Бандитом. Когда давний враг семьи Квестов, доктор Зин, узнаёт о том, что у Бентона Квеста есть орудие решения энергетических проблем мира, он посылает армию злобных кошек украсть его и взять в плен Бентона вместе с охранником Рэйсом Бэнноном. Джонни и его новые пушистые друзья отправляются на опасные поиски отца в попытке спасти мир!
Доп. информация:

Качество: WEB-DLRip / [url=...5035766]WEB-DL 1080p[/url]
Формат: MP4
Видео кодек: H.264
Аудио кодек: AAC
Видео: 960x536 AR:16/9 1693 kbps, 23.976 fps
Аудио: 2 ch, 48 kHz, 128 kbps [MVO] [iTunes]
...last pass...

x264.exe: --pass 2 --bitrate 1693 --preset medium --profile high --level 4.1 --ref 7 --aq-strength 0.7 --deblock -3:-3 --merange 24 --bframes 7 --direct auto --b-adapt 2 --trellis 0 --no-fast-pskip --no-dct-decimate --subme 11 --me umh --rc-lookahead 60 --min-keyint 25 --keyint 240 --colorprim bt709 --transfer bt709 --colormatrix bt709 --sar 1:1 --stats "E:\Tom and Jerry - Spy Quest 2015 WEB-DL 1080p.log" --output "E:\Tom and Jerry - Spy Quest 2015 WEB-DL 1080p.mp4" "J:\Temp\0241.avs"

avs [info]: 960x536p 1:1 @ 2500000/104271 fps (cfr)
x264 [info]: using SAR=1/1
x264 [info]: using cpu capabilities: MMX2 SSE2Fast SSSE3 SSE4.2 LZCNT
x264 [info]: profile High, level 4.1

x264 [info]: frame I:1451 Avg QP:12.44 size:100145
x264 [info]: frame P:30234 Avg QP:16.22 size: 16825
x264 [info]: frame B:73156 Avg QP:20.96 size: 3709
x264 [info]: consecutive B-frames: 4.9% 7.9% 7.8% 66.2% 5.4% 4.5% 1.0% 2.3%
x264 [info]: mb I I16..4: 12.6% 44.1% 43.4%
x264 [info]: mb P I16..4: 2.0% 2.8% 3.0% P16..4: 40.4% 11.6% 12.6% 0.0% 0.0% skip:27.6%
x264 [info]: mb B I16..4: 0.2% 0.2% 0.4% B16..8: 22.6% 3.7% 2.1% direct: 1.2% skip:69.5% L0:42.6% L1:51.9% BI: 5.5%
x264 [info]: 8x8 transform intra:37.4% inter:31.3%
x264 [info]: direct mvs spatial:94.4% temporal:5.6%
x264 [info]: coded y,uvDC,uvAC intra: 70.1% 76.1% 64.6% inter: 10.3% 10.3% 7.0%
x264 [info]: i16 v,h,dc,p: 48% 25% 10% 17%
x264 [info]: i8 v,h,dc,ddl,ddr,vr,hd,vl,hu: 13% 13% 13% 8% 10% 9% 11% 9% 14%
x264 [info]: i4 v,h,dc,ddl,ddr,vr,hd,vl,hu: 14% 13% 12% 8% 11% 10% 11% 9% 13%
x264 [info]: i8c dc,h,v,p: 43% 30% 18% 9%
x264 [info]: Weighted P-Frames: Y:1.4% UV:1.1%
x264 [info]: ref P L0: 65.9% 3.6% 13.5% 6.2% 3.9% 3.7% 2.9% 0.4% 0.0%
x264 [info]: ref B L0: 75.7% 11.2% 6.8% 3.4% 2.0% 1.0%
x264 [info]: ref B L1: 93.4% 6.6%
x264 [info]: kb/s:1692.88

x264 [total]: encoded 104841 frames, 20.94 fps, 1692.88 kb/s
GeneralComplete name : E:\Torrents\Tom and Jerry - Spy Quest.2015.WEB-DLRip.x264.960x.rip by Frost O.S.mp4Format : MPEG-4Format profile : Base MediaCodec ID : isomFile size : 952 MiBDuration : 1h 12mnOverall bit rate mode : VariableOverall bit rate : 1 826 KbpsMovie name : Tom and Jerry - Spy Quest 2015 WEB-DLRip x264 960x rip by Frost O SPerformer : Спайк Брандт, Тони ЧервонеGenre : AnimationContentType : Short FilmRecorded date : 9 РёСЋРЅСЏ 2015Encoded date : UTC 2015-07-08 11:59:41Tagged date : UTC 2015-07-08 12:02:20Writing application : MkvToMp4 version: 0.224 (x64)Cover : YesComment : riip by Frost O.SLongDescription : Ещё один день на пляже для проблемной парочки, пока Том и Джерри не сталкиваются со шпионами Джонни Квестом, Хаджи и Бандитом. Когда давний враг семьи Квестов, доктор Зин, узнаёт о том, что у Бентона Квеста есть орудие решения энергетических проблем мира, он посылает армию злобных кошек украсть его и взять в плен Бентона вместе с охранником Рэйсом Бэнноном. Джонни и его новые пушистые друзья отправляются на опасные поиски отца в попытке спасти мир!

VideoID : 1Format : AVCFormat/Info : Advanced Video CodecFormat profile : [email protected] settings, CABAC : YesFormat settings, ReFrames : 7 framesCodec ID : avc1Codec ID/Info : Advanced Video CodingDuration : 1h 12mnBit rate : 1 693 KbpsMaximum bit rate : 9 734 KbpsWidth : 960 pixelsHeight : 536 pixelsDisplay aspect ratio : 16:9Frame rate mode : ConstantFrame rate : 23.976 fpsColor space : YUVChroma subsampling : 4:2:0Bit depth : 8 bitsScan type : ProgressiveBits/(Pixel*Frame) : 0.137Stream size : 882 MiB (93%)Writing library : x264 core 130 r2273 b3065e6Encoding settings : cabac=1 / ref=7 / deblock=1:-3:-3 / analyse=0x3:0x113 / me=umh / subme=9 / psy=1 / psy_rd=1.00:0.00 / mixed_ref=1 / me_range=24 / chroma_me=1 / trellis=0 / 8x8dct=1 / cqm=0 / deadzone=21,11 / fast_pskip=0 / chroma_qp_offset=-2 / threads=3 / lookahead_threads=1 / sliced_threads=0 / nr=0 / decimate=0 / interlaced=0 / bluray_compat=0 / constrained_intra=0 / bframes=7 / b_pyramid=2 / b_adapt=2 / b_bias=0 / direct=3 / weightb=1 / open_gop=0 / weightp=2 / keyint=240 / keyint_min=25 / scenecut=40 / intra_refresh=0 / rc_lookahead=60 / rc=2pass / mbtree=1 / bitrate=1693 / ratetol=1.0 / qcomp=0.60 / qpmin=0 / qpmax=69 / qpstep=4 / cplxblur=20.0 / qblur=0.5 / ip_ratio=1.40 / aq=1:0.70Language : EnglishEncoded date : UTC 2015-07-08 11:59:41Tagged date : UTC 2015-07-08 12:00:55Color primaries : BT.709Transfer characteristics : BT.709Matrix coefficients : BT.709

AudioID : 2Format : AACFormat/Info : Advanced Audio CodecFormat profile : LCCodec ID : 40Duration : 1h 12mnBit rate mode : VariableBit rate : 128 KbpsMaximum bit rate : 135 KbpsChannel(s) : 2 channelsChannel positions : Front: L RSampling rate : 48.0 KHzCompression mode : LossyStream size : 66.7 MiB (7%)Title : [MVO] [iTunes]Language : RussianEncoded date : UTC 2015-07-08 12:00:34Tagged date : UTC 2015-07-08 12:00:55


Трекер:  [ 08-Июл-2015 13:00 ]

  

Скачать .torrent

Размер .torrent файла 19 KB


Размер: 952 MB
Хэш (hash) релиза: 0a11bdb49af9ad7a03ddf34a7324b4b6bef1984c

Еще никто не оставлял запись к записи скачать торрент [MULT] Том и Джерри: Шпионские игры Tom and Jerry: Spy Quest . Будь первым!

!Обратная связь