LINE - общаемся бесплатно! | Реклама | Hotel Transilvânia 3: Férias Monstruosas Assistir Hotel Transilvânia 3: Férias Monstruosas 720p Dublado/Legendado Online Agora que Dennis, o neto de Drácula, é um completo vampiro, as coisas não poderiam estar melhores no Hotel transilvânia. Quando um milionário ganancioso ameaça destruir a propriedade para construir um resort, a família de Dráculo e os monstros precisam se unir para certificar que ele nunca complete os seus planos. Ver filme ...

Скачать через торрент [SERIAL] Дневники вампира The Vampire Diaries бесплатно русская версия torrent активатор

Статистика раздачи
Размер:  8.24 GB   |    Зарегистрирован:  3 года   |    .torrent скачан:  61 раз   |   
Раздают:  1  
   
загрузка...
 
Автор Сообщение

Galfimbul

avatar Galfimbul


Дневники вампира / The Vampire Diaries

Год выпуска: 2013

Страна: США
Жанр: ужасы, фэнтези, драма, мелодрама
Продолжительность: 00:42:00
Перевод: Профессиональный (многоголосый закадровый) (LostFilm)
Cубтитры: нет
Оригинальная аудиодорожка: нет

Режиссер: Маркос Сига

В ролях: Нина Добрев, Пол Уэсли, Иен Сомерхолдер, Стивен Р. МакКуин, Катерина Грэхэм, Кэндис Аккола, Зак Рериг, Сара Каннинг, Майкл Тревино, Мэттью Дэвис, Маргарит МакИнтайр, Малез Джоу...

Описание: Прошло всего четыре месяца после трагической аварии, в которой погибли их родители, и 17-летняя Елена Гилберт и ее 15-летний брат Джереми все еще пытаются оправиться от потери и вернуться к нормальной жизни. Елена всегда была отличной ученицей, красивой и популярной девушкой в школе, но теперь ей очень тяжело скрывать свою печаль от внешнего мира. В начале учебного года внимание Елены и ее друзей привлекает новый ученик, загадочный и красивый Стефан Сальваторе.

Стефан и Елена тут же чувствуют взаимную симпатию, но Елена даже не подозревает, что Стефан — вампир, которому уже сотни лет, и который старается мирно жить среди людей, несмотря на то, что его брат, Дэймон — воплощение вампирской жестокости и кровожадности. Теперь два брата-вампира — один добрый, другой злой — ведут борьбу за души Елены, ее друзей и других жителей городка Мистик Фоллз.Качество: WEB-DLRip
Формат: MP4
Видео кодек: XviD
Аудио кодек: AAC

Видео: MPEG-4 Visual at 1042 Кбит/сек; 640 x 360 (1.778) at 23.976 fps
Аудио: AAC at 128 Кбит/сек; 2 канала, 44,1 КГц

Релиз от -
01: Боль перемен
02: Поминки
03: Встряска
04: Пять
05: Убийца
06: Порою все мы немного сходим с ума
07: Хранитель брата моего
08: У нас всегда будет Бурбон-стрит
09: Придите, все верующие
10: Внеклассные занятия
11: Поймай меня, если сможешь
12: Вид на убийство
13: В диких условиях
14: Вниз по кроличьей норе
15: Останься со мной
16: Добейся успеха
17: Потому что ночь
18: Американская готика
19: Воспоминания о тебе
20: Древние
21: Она свихнулась
22: Ходячие мертвецы
23: Выпускной
ОбщееПолное имя : D:\Фильмы\Сериалы\The Vampire Diaries.S04.2013.WEB-DLRip.MP4.rip by [Asssassin's Creed]\The Vampire Diaries.E01.WEB-DLRip.MP4.rip by [Asssassin's Creed].mp4Формат : MPEG-4Профиль формата : Base Media / Version 2Идентификатор кодека : mp42Размер файла : 357 МбайтПродолжительность : 42 м.Режим общего битрейта : ПеременныйОбщий поток : 1173 Кбит/секДата кодирования : UTC 2015-05-26 19:47:36Дата пометки : UTC 2015-05-26 19:47:36

ВидеоИдентификатор : 201Формат : MPEG-4 VisualПрофиль формата : [email protected]Параметр BVOP формата : НетПараметр QPel формата : НетПараметр GMC формата : Без точки переходаПараметр матрицы формата : Default (H.263)Идентификатор кодека : 20Продолжительность : 42 м.Вид битрейта : ПеременныйБитрейт : 1042 Кбит/секМаксимальный битрейт : 8131 Кбит/секШирина : 640 пикселейВысота : 360 пикселейСоотношение сторон : 16:9Режим частоты кадров : ПостоянныйЧастота кадров : 23,976 кадра/секЦветовое пространство : YUVСубдискретизация насыщенности : 4:2:0Битовая глубина : 8 битТип развёртки : ПрогрессивнаяМетод сжатия : С потерямиБит/(Пиксели*Кадры) : 0.189Размер потока : 318 Мбайт (89%)Библиотека кодирования : Lavc53.33.0Дата кодирования : UTC 2015-05-26 19:47:36Дата пометки : UTC 2015-05-26 19:47:41

АудиоИдентификатор : 101Формат : AACФормат/Информация : Advanced Audio CodecПрофиль формата : LCИдентификатор кодека : 40Продолжительность : 42 м.Вид битрейта : ПеременныйБитрейт : 128 Кбит/секМаксимальный битрейт : 155 Кбит/секКаналы : 2 каналаРасположение каналов : Front: L RЧастота : 44,1 КГцМетод сжатия : С потерямиРазмер потока : 39,0 Мбайт (11%)Дата кодирования : UTC 2015-05-26 19:47:40Дата пометки : UTC 2015-05-26 19:47:41

Прочее #1Идентификатор : 2Тип : Object descriptionФормат : SystemИдентификатор кодека : 1Продолжительность : 1 с. 0 мс.Дата кодирования : UTC 2015-05-26 19:47:41Дата пометки : UTC 2015-05-26 19:47:41

Прочее #2Идентификатор : 1Тип : Scene descriptionФормат : System CoreИдентификатор кодека : 2Продолжительность : 1 с. 0 мс.Дата кодирования : UTC 2015-05-26 19:47:41Дата пометки : UTC 2015-05-26 19:47:41


Трекер:  [ 27-Июн-2015 23:30 ]

  

Скачать .torrent

Размер .torrent файла 44 KB


Размер: 8.24 GB
Хэш (hash) релиза: b552c680ad36d167b2525fabf86bf88913d5c83f

Еще никто не оставлял запись к записи скачать торрент [SERIAL] Дневники вампира The Vampire Diaries . Будь первым!

!Обратная связь