house of cards s04 | Nurse Witch Komugi-Chan R | SEAL Team HDTV

Скачать через торрент [SERIAL] Форс-мажоры Suits бесплатно русская версия torrent активатор

Статистика раздачи
Размер:  5.64 GB   |    Зарегистрирован:  3 года   |    .torrent скачан:  74 раза   |   
Раздают:  1  
   
загрузка...
 
Автор Сообщение

Galfimbul

avatar Galfimbul


Форс-мажоры / Suits
Год выпуска: 2013

Страна:
Жанр: драма, комедия
Продолжительность: 16 x ~45 мин
Перевод: Профессиональный (двухголосый закадровый) NewStudio
Cубтитры: нет
Режиссер: Кевин Брэй / Kevin Bray, Джон Скотт / John Scott, Майкл Смит / Michael Smith
В ролях: Гэбриел Махт, Патрик Дж. Адамс, Рик Хоффман, Меган Маркл, Сара Рафферти, Джина Торрес, Ванесса Рэй, Том Липински, Макс Топплин, Ребекка Скул, Джулиан ДеЗотти, Бен Льюис Убегая после неудачной попытки сбыта наркотиков, юрист-самоучка Майк Росс, выдающий себя за выпускника Гарварда, попадает на собеседование к одному из лучших адвокатов по сделкам Нью-Йорка Харви Спектру. Устав от скучных соискателей, мечтающих «верой и правдой служить букве закона», Харви рискует и нанимает Майка: у парня врожденный талант и фотографическая память. Так рождается один из самых неоднозначных, но, в то же время, и самых блестящих тандемов законников на Манхэттене.Кинопоиск | IMDB
[b]Качество: WEB-DLRip
Исходник : Suits.S03.720p.WEB-DL.Rus.Eng.HDCLUB
Формат: MP4
Видео: AVC, 640x360 (16:9), 1024 kbps, 23,976fps
Аудио: Русский [Двухголосый], AAC, 48kHz, (2 ch), 128,0 kbps[/b]
01: The Arrangement
02: I Want You to Want Me
03: Unfinished Business
04: Conflict of Interest
05: Shadow of a Doubt
06: The Other Time
07: She's Mine
08: End Game
09: Bad Faith
10: Stay
11: Buried Secrets
12: Yesterday's Gone
13: Moot Point
14: Heartburn
15: Know When to Fold 'Em
16: No Way Out
ОбщееПолное имя : Suits S03\Suits.S03E03.mp4Формат : MPEG-4Профиль формата : Base MediaИдентификатор кодека : isomРазмер файла : 356 МбайтПродолжительность : 43 м.Режим общего битрейта : ПеременныйОбщий поток : 1156 Кбит/секДата кодирования : UTC 2015-06-20 01:01:33Дата пометки : UTC 2015-06-20 01:01:33

ВидеоИдентификатор : 1Формат : AVCФормат/Информация : Advanced Video CodecПрофиль формата : [email protected]Параметр CABAC формата : ДаПараметр ReFrames формата : 9 кадровИдентификатор кодека : avc1Идентификатор кодека/Информация : Advanced Video CodingПродолжительность : 43 м.Битрейт : 1024 Кбит/секМаксимальный битрейт : 3783 Кбит/секШирина : 640 пикселейВысота : 360 пикселейСоотношение сторон : 16:9Режим частоты кадров : ПостоянныйЧастота кадров : 23,976 кадра/секЦветовое пространство : YUVСубдискретизация насыщенности : 4:2:0Битовая глубина : 8 битТип развёртки : ПрогрессивнаяБит/(Пиксели*Кадры) : 0.185Размер потока : 315 Мбайт (89%)Заголовок : [email protected]-DEV-rev248-g39d5978-masterБиблиотека кодирования : x264 core 146 r2538 121396cДата кодирования : UTC 2015-06-20 01:01:33Дата пометки : UTC 2015-06-20 01:01:58

АудиоИдентификатор : 2Формат : AACФормат/Информация : Advanced Audio CodecПрофиль формата : LCИдентификатор кодека : 40Продолжительность : 43 м.Вид битрейта : ПеременныйБитрейт : 128 Кбит/секМаксимальный битрейт : 172 Кбит/секКаналы : 2 каналаРасположение каналов : Front: L RЧастота : 48,0 КГцМетод сжатия : С потерямиРазмер потока : 39,4 Мбайт (11%)Дата кодирования : UTC 2015-06-19 23:16:13Дата пометки : UTC 2015-06-20 01:01:58


Трекер:  [ 24-Июн-2015 01:00 ]

  

Скачать .torrent

Размер .torrent файла 29 KB


Размер: 5.64 GB
Хэш (hash) релиза: 89a12b1100c98209c97892f81f40a642ae8b4814

Еще никто не оставлял запись к записи скачать торрент [SERIAL] Форс-мажоры Suits . Будь первым!

!Обратная связь