Télécharger Part 1 | One in a Million | ¡Kapow!!! Junio Vol.1 : Isla de Craperros !!!!

Скачать через торрент [VIDEO] Пила: Полное собрание Saw: The Complete Collection бесплатно русская версия torrent активатор

Статистика раздачи
Размер:  3.97 GB   |    Зарегистрирован:  3 года 1 месяц   |    .torrent скачан:  138 раз   |   
Раздают:  1  
   
загрузка...
 
Автор Сообщение

Galfimbul

avatar Galfimbul


Пила: Игра на выживание / Saw
Год выпуска: 2004
Страна: США, Австралия / Evolution Entertainment, Saw Productions Inc., Twisted Pictures
Жанр: ужасы, детектив
Продолжительность: 01:42:46
Перевод: Профессиональный (полное дублирование)
Оригинальная дорожка: Нет
Cубтитры: Нет
Режиссер: Джеймс Ван / James Wan
В ролях: Ли Уоннелл, Кэри Элвис, Дэнни Гловер, Кен Люн, Дина Мейер, Майк Баттерз, Пол Гутрехт, Майкл Эмерсон, Бенито Мартинез, Шоуни Смит, Макензи Вега, Моника Поттер, Нед Беллами, Александра Бокун Чун, Avner Garbi, Тобин Белл

Описание: Двое незнакомцев просыпаются в странном подвальном помещении. В центре помещения — труп мужчины с простреленной головой и оружием в ослабевшей руке. Они же прикованы к стенам цепями за щиколотки. Оба не знают, как там оказались. Путём нехитрых предположений и спрятанных вокруг них ответов, как частей какого-то паззла, они узнают, по крайней мере, зачем они здесь и что именно от них ждёт их Похититель. Голос с найденной плёнки бесстрастно вещает: «Если ты хочешь спасти свою жену и детей, убей другого». Убить другого можно, только дотянувшись до оружия. Дотянуться до оружия нельзя иначе, как избавившись от цепи. Избавиться от цепи нельзя иначе, кроме как отпилив ногу. Времени — мало. Но достаточно, чтобы реконструировать цепочку странных событий, которые привели каждого из них туда, где они сейчас оказались…

Качество: BDRip
Формат: MP4
Видео: AVC, 640x360 (1:78:1), 700 kbps, 23.976 fps
Аудио 1: Русский, AAC, 2 ch, 48 kHz, 128 kbps [Dub]
x264 [info]: frame I:2584 Avg QP:19.03 size: 24033
x264 [info]: frame P:62399 Avg QP:21.53 size: 5712
x264 [info]: frame B:82857 Avg QP:23.72 size: 1457

x264 [total]: encoded 147840 frames, 29.11 fps, 699.58 kb/s
General
Complete name : X:\Всё для мобильных телефонов и КПК\Видео\Saw The Complete Collection (2004-2010)\Saw.2004.1080p.BluRay.8xRus.Ukr.Eng.HDCLUB-SbR.mp4
Format : MPEG-4
Format profile : Base Media
Codec ID : isom
File size : 611 MiB
Duration : 1h 42mn
Overall bit rate mode : Variable
Overall bit rate : 831 Kbps
Encoded date : UTC 2015-06-18 15:51:21
Tagged date : UTC 2015-06-18 15:51:21

Video
ID : 1
Format : AVC
Format/Info : Advanced Video Codec
Format profile : [email protected]
Format settings, CABAC : Yes
Format settings, ReFrames : 4 frames
Codec ID : avc1
Codec ID/Info : Advanced Video Coding
Duration : 1h 42mn
Bit rate : 700 Kbps
Maximum bit rate : 6 412 Kbps
Width : 640 pixels
Height : 360 pixels
Display aspect ratio : 16:9
Frame rate mode : Constant
Frame rate : 23.976 fps
Color space : YUV
Chroma subsampling : 4:2:0
Bit depth : 8 bits
Scan type : Progressive
Bits/(Pixel*Frame) : 0.127
Stream size : 514 MiB (84%)
Title : [email protected]-DEV-rev248-g39d5978-master
Writing library : x264 core 146 r2538 121396c
Encoding settings : cabac=1 / ref=3 / deblock=1:0:0 / analyse=0x3:0x113 / me=hex / subme=7 / psy=1 / psy_rd=1.00:0.00 / mixed_ref=1 / me_range=16 / chroma_me=1 / trellis=1 / 8x8dct=1 / cqm=0 / deadzone=21,11 / fast_pskip=1 / chroma_qp_offset=-2 / threads=6 / lookahead_threads=1 / sliced_threads=0 / nr=0 / decimate=1 / interlaced=0 / bluray_compat=0 / constrained_intra=0 / bframes=3 / b_pyramid=2 / b_adapt=1 / b_bias=0 / direct=1 / weightb=1 / open_gop=0 / weightp=2 / keyint=250 / keyint_min=23 / scenecut=40 / intra_refresh=0 / rc_lookahead=40 / rc=2pass / mbtree=1 / bitrate=700 / ratetol=1.0 / qcomp=0.60 / qpmin=0 / qpmax=69 / qpstep=4 / cplxblur=20.0 / qblur=0.5 / ip_ratio=1.40 / aq=1:1.00
Encoded date : UTC 2015-06-18 15:51:21
Tagged date : UTC 2015-06-18 15:51:57

Audio
ID : 2
Format : AAC
Format/Info : Advanced Audio Codec
Format profile : LC
Codec ID : 40
Duration : 1h 42mn
Bit rate mode : Variable
Bit rate : 128 Kbps
Maximum bit rate : 151 Kbps
Channel(s) : 2 channels
Channel positions : Front: L R
Sampling rate : 48.0 KHz
Compression mode : Lossy
Stream size : 94.1 MiB (15%)
Encoded date : UTC 2015-06-18 15:49:07
Tagged date : UTC 2015-06-18 15:51:57
Пила 2 / Saw II
Год выпуска: 2005
Страна: США, Канада
Жанр: ужасы
Продолжительность: 01:34:32
Перевод: Профессиональный (полное дублирование)
Оригинальная дорожка: Нет
Cубтитры: Нет
Режиссер: Даррен Линн Боусман / Darren Lynn Bousman
В ролях: Тобин Белл, Шоуни Смит, Донни Уолберг, Эрик Кнудсен, Фрэнки Джи, Гленн Пламмер, Эммануэль Вожье, Беверли Митчелл, Тим Берд, Дина Мейер

Описание: Во время расследования подробностей кровавых деяний неизвестного убийцы детектив Эрик Мэтьюс ловит себя на мысли, что они очень похожи на работу Пилы — известного маньяка, который смог исчезнуть, оставив за собой множество жертв. Метьюс оказывается прав. Пила снова взялся за свое ужасное ремесло. Только на этот раз вместо двух людей, он запирает в комнате смерти с единственных способом выбраться живым, сразу восемь человек. Восемь никак не связанных друг с другом незнакомцев оказываются вынуждены вступить в игру сумасшедшего убийцы, ставками в которой будут их жизни…

Качество: BDRip
Формат: MP4
Видео: AVC, 640x360 (1:78:1), 700 kbps, 23.976 fps
Аудио 1: Русский, AAC, 2 ch, 48 kHz, 128 kbps [Dub]
x264 [info]: frame I:3169 Avg QP:19.80 size: 21275
x264 [info]: frame P:64752 Avg QP:22.60 size: 5337
x264 [info]: frame B:68083 Avg QP:24.49 size: 1222

x264 [total]: encoded 136004 frames, 30.81 fps, 699.83 kb/s
General
Complete name : X:\Всё для мобильных телефонов и КПК\Видео\Saw The Complete Collection (2004-2010)\Saw II (2005) BDRip.mp4
Format : MPEG-4
Format profile : Base Media
Codec ID : isom
File size : 562 MiB
Duration : 1h 34mn
Overall bit rate mode : Variable
Overall bit rate : 832 Kbps
Encoded date : UTC 2015-06-19 14:26:00
Tagged date : UTC 2015-06-19 14:26:00

Video
ID : 1
Format : AVC
Format/Info : Advanced Video Codec
Format profile : [email protected]
Format settings, CABAC : Yes
Format settings, ReFrames : 4 frames
Codec ID : avc1
Codec ID/Info : Advanced Video Coding
Duration : 1h 34mn
Bit rate : 700 Kbps
Maximum bit rate : 5 227 Kbps
Width : 640 pixels
Height : 360 pixels
Display aspect ratio : 16:9
Frame rate mode : Constant
Frame rate : 23.976 fps
Color space : YUV
Chroma subsampling : 4:2:0
Bit depth : 8 bits
Scan type : Progressive
Bits/(Pixel*Frame) : 0.127
Stream size : 473 MiB (84%)
Title : [email protected]-DEV-rev248-g39d5978-master
Writing library : x264 core 146 r2538 121396c
Encoding settings : cabac=1 / ref=3 / deblock=1:0:0 / analyse=0x3:0x113 / me=hex / subme=7 / psy=1 / psy_rd=1.00:0.00 / mixed_ref=1 / me_range=16 / chroma_me=1 / trellis=1 / 8x8dct=1 / cqm=0 / deadzone=21,11 / fast_pskip=1 / chroma_qp_offset=-2 / threads=6 / lookahead_threads=1 / sliced_threads=0 / nr=0 / decimate=1 / interlaced=0 / bluray_compat=0 / constrained_intra=0 / bframes=3 / b_pyramid=2 / b_adapt=1 / b_bias=0 / direct=1 / weightb=1 / open_gop=0 / weightp=2 / keyint=250 / keyint_min=23 / scenecut=40 / intra_refresh=0 / rc_lookahead=40 / rc=2pass / mbtree=1 / bitrate=700 / ratetol=1.0 / qcomp=0.60 / qpmin=0 / qpmax=69 / qpstep=4 / cplxblur=20.0 / qblur=0.5 / ip_ratio=1.40 / aq=1:1.00
Encoded date : UTC 2015-06-19 14:26:00
Tagged date : UTC 2015-06-19 14:26:33

Audio
ID : 2
Format : AAC
Format/Info : Advanced Audio Codec
Format profile : LC
Codec ID : 40
Duration : 1h 34mn
Bit rate mode : Variable
Bit rate : 128 Kbps
Maximum bit rate : 220 Kbps
Channel(s) : 2 channels
Channel positions : Front: L R
Sampling rate : 48.0 KHz
Compression mode : Lossy
Stream size : 86.5 MiB (15%)
Encoded date : UTC 2015-06-19 14:23:53
Tagged date : UTC 2015-06-19 14:26:33
Пила 3 / Saw III
Год выпуска: 2006
Страна: США, Канада
Жанр: ужасы, детектив
Продолжительность: 01:53:45
Перевод: Профессиональный (полное дублирование)
Оригинальная дорожка: Нет
Cубтитры: Нет
Режиссер: Даррен Линн Боусман / Darren Lynn Bousman
В ролях: Тобин Белл, Шоуни Смит, Энгус МакФадьен, Бахар Сумех, Донни Уолберг, Дина Мейер, Ли Уоннелл, Мфо Коахо, Бэрри Флэтмэн, Лайрик Бент(D.K.), Натали Келли (Neela), Брайан Гудман (Major Boswell), Джейсон Дж. Тобин (Earl), Кейко Китагава (Reiko), Закари Ти Брайан (Clay), Никки Гриффин (Cindy - Clay's Girlfriend), Дэмиен Марцетт (High School Security Guard), Трула М. Маркус (American Math Teacher)

Описание: Изобретатель зловещих игр остается безнаказанным и в итоге бесследно исчезает вместе со своей сообщницей Амандой. В то время, как детективы тщетно пытаются выйти на его след, доктор Линн Денлон становится очередной жертвой этого маньяка. Однажды ночью Линн похищают и привозят в заброшенный склад, где она встречается с самим злодеем, находящимся на смертном одре. Ей приказывают сохранять жизнь этому безумцу, пока Джефф, еще одна из его жертв, не доведет до конца начатую с ним «игру»…

Качество: HDRip
Формат: MP4
Видео: AVC, 640x360 (1:78:1),, 700 kbps, 23.976 fps
Аудио 1: Русский, AAC, 2 ch, 48 kHz, 128 kbps [Dub]
x264 [info]: frame I:3791 Avg QP:17.83 size: 18722
x264 [info]: frame P:85722 Avg QP:20.68 size: 5033
x264 [info]: frame B:74119 Avg QP:22.74 size: 1278

x264 [total]: encoded 163632 frames, 27.69 fps, 700.00 kb/s
General
Complete name : X:\Всё для мобильных телефонов и КПК\Видео\Saw The Complete Collection (2004-2010)\Saw III (2006) BDRip.mp4
Format : MPEG-4
Format profile : Base Media
Codec ID : isom
File size : 677 MiB
Duration : 1h 53mn
Overall bit rate mode : Variable
Overall bit rate : 832 Kbps
Encoded date : UTC 2015-06-19 17:40:17
Tagged date : UTC 2015-06-19 17:40:17

Video
ID : 1
Format : AVC
Format/Info : Advanced Video Codec
Format profile : [email protected]
Format settings, CABAC : Yes
Format settings, ReFrames : 4 frames
Codec ID : avc1
Codec ID/Info : Advanced Video Coding
Duration : 1h 53mn
Bit rate : 700 Kbps
Maximum bit rate : 5 194 Kbps
Width : 640 pixels
Height : 360 pixels
Display aspect ratio : 16:9
Frame rate mode : Constant
Frame rate : 23.976 fps
Color space : YUV
Chroma subsampling : 4:2:0
Bit depth : 8 bits
Scan type : Progressive
Bits/(Pixel*Frame) : 0.127
Stream size : 569 MiB (84%)
Title : [email protected]-DEV-rev248-g39d5978-master
Writing library : x264 core 146 r2538 121396c
Encoding settings : cabac=1 / ref=3 / deblock=1:0:0 / analyse=0x3:0x113 / me=hex / subme=7 / psy=1 / psy_rd=1.00:0.00 / mixed_ref=1 / me_range=16 / chroma_me=1 / trellis=1 / 8x8dct=1 / cqm=0 / deadzone=21,11 / fast_pskip=1 / chroma_qp_offset=-2 / threads=6 / lookahead_threads=1 / sliced_threads=0 / nr=0 / decimate=1 / interlaced=0 / bluray_compat=0 / constrained_intra=0 / bframes=3 / b_pyramid=2 / b_adapt=1 / b_bias=0 / direct=1 / weightb=1 / open_gop=0 / weightp=2 / keyint=250 / keyint_min=23 / scenecut=40 / intra_refresh=0 / rc_lookahead=40 / rc=2pass / mbtree=1 / bitrate=700 / ratetol=1.0 / qcomp=0.60 / qpmin=0 / qpmax=69 / qpstep=4 / cplxblur=20.0 / qblur=0.5 / ip_ratio=1.40 / aq=1:1.00
Encoded date : UTC 2015-06-19 17:40:17
Tagged date : UTC 2015-06-19 17:40:48

Audio
ID : 2
Format : AAC
Format/Info : Advanced Audio Codec
Format profile : LC
Codec ID : 40
Duration : 1h 53mn
Bit rate mode : Variable
Bit rate : 128 Kbps
Maximum bit rate : 154 Kbps
Channel(s) : 2 channels
Channel positions : Front: L R
Sampling rate : 48.0 KHz
Compression mode : Lossy
Stream size : 104 MiB (15%)
Encoded date : UTC 2015-06-19 17:37:31
Tagged date : UTC 2015-06-19 17:40:48
Пила 4 / Saw IV
Год выпуска: 2007
Страна: США, Канада
Жанр: ужасы, триллер, детектив
Продолжительность: 01:35:32
Перевод: Профессиональный (полное дублирование)
Оригинальная дорожка: Нет
Cубтитры: Нет
Режиссер: Даррен Линн Боусман / Darren Lynn Bousman
В ролях: Тобин Белл, Костас Мэндилор, Скотт Паттерсон, Бетси Расселл, Лайрик Бент, Афена Карканис, Джастин Луис, Саймон Рейнольдс, Донни Уолберг, Энгус МакФадьен

Описание: Получив известие об убийстве детектива Кэрри, два опытных сотрудника ФБР, агент Стрэм и агент Перез, прибывают в полицейский участок, чтобы помочь старому детективу Хоффману проанализировать последнюю ужасную игру Пилы и соединить все части головоломки. Однако, когда капитан Ригг, последний полицейский, нетронутый Пилой, оказывается похищен и вовлечен в чудовищную игру маньяка, у офицера остается лишь девяносто минут, чтобы обнаружить ряд взаимосвязанных ловушек… или оказаться перед лицом их беспощадных последствий. В то время, как Риг

Качество: BDRip
Формат: MP4
Видео: AVC, 640x360 (1:78:1), 700 kbps, 23.976 fps
Аудио 1: Русский, AAC, 2 ch, 48 kHz, 128 kbps [Dub]
x264 [info]: frame I:3231 Avg QP:19.34 size: 20641
x264 [info]: frame P:73262 Avg QP:21.87 size: 4824
x264 [info]: frame B:60932 Avg QP:23.80 size: 1325

x264 [total]: encoded 137425 frames, 30.59 fps, 698.97 kb/s
General
Complete name : X:\Всё для мобильных телефонов и КПК\Видео\Saw The Complete Collection (2004-2010)\Saw IV (2007) BDRip.mp4
Format : MPEG-4
Format profile : Base Media
Codec ID : isom
File size : 566 MiB
Duration : 1h 35mn
Overall bit rate mode : Variable
Overall bit rate : 828 Kbps
Encoded date : UTC 2015-06-19 20:13:54
Tagged date : UTC 2015-06-19 20:13:54

Video
ID : 1
Format : AVC
Format/Info : Advanced Video Codec
Format profile : [email protected]
Format settings, CABAC : Yes
Format settings, ReFrames : 4 frames
Codec ID : avc1
Codec ID/Info : Advanced Video Coding
Duration : 1h 35mn
Bit rate : 700 Kbps
Maximum bit rate : 7 105 Kbps
Width : 640 pixels
Height : 360 pixels
Display aspect ratio : 16:9
Frame rate mode : Constant
Frame rate : 23.976 fps
Color space : YUV
Chroma subsampling : 4:2:0
Bit depth : 8 bits
Scan type : Progressive
Bits/(Pixel*Frame) : 0.127
Stream size : 478 MiB (84%)
Title : [email protected]-DEV-rev248-g39d5978-master
Writing library : x264 core 146 r2538 121396c
Encoding settings : cabac=1 / ref=3 / deblock=1:0:0 / analyse=0x3:0x113 / me=hex / subme=7 / psy=1 / psy_rd=1.00:0.00 / mixed_ref=1 / me_range=16 / chroma_me=1 / trellis=1 / 8x8dct=1 / cqm=0 / deadzone=21,11 / fast_pskip=1 / chroma_qp_offset=-2 / threads=6 / lookahead_threads=1 / sliced_threads=0 / nr=0 / decimate=1 / interlaced=0 / bluray_compat=0 / constrained_intra=0 / bframes=3 / b_pyramid=2 / b_adapt=1 / b_bias=0 / direct=1 / weightb=1 / open_gop=0 / weightp=2 / keyint=250 / keyint_min=23 / scenecut=40 / intra_refresh=0 / rc_lookahead=40 / rc=2pass / mbtree=1 / bitrate=700 / ratetol=1.0 / qcomp=0.60 / qpmin=0 / qpmax=69 / qpstep=4 / cplxblur=20.0 / qblur=0.5 / ip_ratio=1.40 / aq=1:1.00
Encoded date : UTC 2015-06-19 20:13:54
Tagged date : UTC 2015-06-19 20:14:22

Audio
ID : 2
Format : AAC
Format/Info : Advanced Audio Codec
Format profile : LC
Codec ID : 40
Duration : 1h 33mn
Bit rate mode : Variable
Bit rate : 128 Kbps
Maximum bit rate : 186 Kbps
Channel(s) : 2 channels
Channel positions : Front: L R
Sampling rate : 48.0 KHz
Compression mode : Lossy
Stream size : 85.7 MiB (15%)
Encoded date : UTC 2015-06-19 20:11:49
Tagged date : UTC 2015-06-19 20:14:22
Пила 5 / Saw V
Год выпуска: 2008
Страна: США, Канада
Жанр: ужасы, детектив
Продолжительность: 01:35:04
Перевод: Профессиональный (полное дублирование)
Оригинальная дорожка: Нет
Cубтитры: Нет
Режиссер: Дэвид Хэкл / David Hackl
В ролях: Тобин Белл, Костас Мэндилор, Скотт Паттерсон, Бетси Расселл, Джули Бенц, Миган Гуд, Марк Ролстон, Карло Рота, Грег Брайк, Лаура Гордон

Описание: Один из последователей маньяка-убийцы Пилы, Марк Хоффман, следуя заветам своего кровавого гуру, готовит очередную смертельную головоломку. Тем временем агент Страм начинает догадываться о связи Хоффмана с Пилой, и Хоффману приходится выйти на новую охоту, чтобы уничтожить все ниточки, ведущие к нему. Пятерых незнакомым друг с другом людей уже ждет жестокий урок командной игры на выживание — еще больше крови, еще изощреннее ловушки… Страм идет по следам Хоффмана, пытаясь докопаться до причин, по которым он присоединился к Пиле. Их ждет встреча лицом к лицу в преддверии неотвратимого и непредсказуемого финала.

Качество: BDRip
Формат: MP4
Видео: AVC, 640x360 (1:78:1), 700 kbps, 23.976 fps
Аудио 1: Русский, AAC, 2 ch, 48 kHz, 128 kbps [Dub]
x264 [info]: frame I:2369 Avg QP:17.66 size: 23455
x264 [info]: frame P:64494 Avg QP:20.59 size: 5386
x264 [info]: frame B:69890 Avg QP:22.40 size: 1354

x264 [total]: encoded 136753 frames, 33.73 fps, 697.85 kb/s
General
Complete name : X:\Всё для мобильных телефонов и КПК\Видео\Saw The Complete Collection (2004-2010)\Saw V (2008) BDRip.mp4
Format : MPEG-4
Format profile : Base Media
Codec ID : isom
File size : 564 MiB
Duration : 1h 35mn
Overall bit rate mode : Variable
Overall bit rate : 830 Kbps
Encoded date : UTC 2015-06-19 22:33:14
Tagged date : UTC 2015-06-19 22:33:14

Video
ID : 1
Format : AVC
Format/Info : Advanced Video Codec
Format profile : [email protected]
Format settings, CABAC : Yes
Format settings, ReFrames : 4 frames
Codec ID : avc1
Codec ID/Info : Advanced Video Coding
Duration : 1h 35mn
Bit rate : 700 Kbps
Maximum bit rate : 4 911 Kbps
Width : 640 pixels
Height : 360 pixels
Display aspect ratio : 16:9
Frame rate mode : Constant
Frame rate : 23.976 fps
Color space : YUV
Chroma subsampling : 4:2:0
Bit depth : 8 bits
Scan type : Progressive
Bits/(Pixel*Frame) : 0.127
Stream size : 474 MiB (84%)
Title : [email protected]-DEV-rev248-g39d5978-master
Writing library : x264 core 146 r2538 121396c
Encoding settings : cabac=1 / ref=3 / deblock=1:0:0 / analyse=0x3:0x113 / me=hex / subme=7 / psy=1 / psy_rd=1.00:0.00 / mixed_ref=1 / me_range=16 / chroma_me=1 / trellis=1 / 8x8dct=1 / cqm=0 / deadzone=21,11 / fast_pskip=1 / chroma_qp_offset=-2 / threads=6 / lookahead_threads=1 / sliced_threads=0 / nr=0 / decimate=1 / interlaced=0 / bluray_compat=0 / constrained_intra=0 / bframes=3 / b_pyramid=2 / b_adapt=1 / b_bias=0 / direct=1 / weightb=1 / open_gop=0 / weightp=2 / keyint=250 / keyint_min=23 / scenecut=40 / intra_refresh=0 / rc_lookahead=40 / rc=2pass / mbtree=1 / bitrate=700 / ratetol=1.0 / qcomp=0.60 / qpmin=0 / qpmax=69 / qpstep=4 / cplxblur=20.0 / qblur=0.5 / ip_ratio=1.40 / aq=1:1.00
Encoded date : UTC 2015-06-19 22:33:14
Tagged date : UTC 2015-06-19 22:33:43

Audio
ID : 2
Format : AAC
Format/Info : Advanced Audio Codec
Format profile : LC
Codec ID : 40
Duration : 1h 35mn
Bit rate mode : Variable
Bit rate : 128 Kbps
Maximum bit rate : 156 Kbps
Channel(s) : 2 channels
Channel positions : Front: L R
Sampling rate : 48.0 KHz
Compression mode : Lossy
Stream size : 87.0 MiB (15%)
Encoded date : UTC 2015-06-19 22:31:07
Tagged date : UTC 2015-06-19 22:33:43
Пила 6 / Saw VI
Год выпуска: 2009
Страна: Канада, США, Великобритания, Австралия
Жанр: ужасы, детектив
Продолжительность: 01:31:38
Перевод: Профессиональный (полное дублирование)
Оригинальная дорожка: Нет
Cубтитры: Нет
Режиссер:Кевин Гротерт / Kevin Greutert
В ролях: Тобин Белл, Костас Мэндилор, Марк Ролстон, Бетси Расселл, Шоуни Смит, Питер Аутербридж, Афена Карканис, Саманта Лемоул, Танедра Ховард, Марти Моро

Описание: Специальный агент Страм мертв и нет никаких сомнений в том, что детектив Хоффман является продолжателем дела Конструктора. Но когда ФБР садится ему на след, он вынужден вновь начать Игру, наконец-то расставляющую все точки над i в грандиозном плане Конструктора.

Качество: BDRip
Формат: MP4
Видео: AVC, 640x360 (1:78:1),, 700 kbps, 23.976 fps
Аудио 1: Русский, AAC, 2 ch, 48 kHz, 128 kbps [Dub]
x264 [info]: frame I:3201 Avg QP:20.14 size: 18860
x264 [info]: frame P:67528 Avg QP:22.97 size: 5073
x264 [info]: frame B:61090 Avg QP:24.55 size: 1276

x264 [total]: encoded 131819 frames, 34.47 fps, 699.72 kb/s
General
Complete name : X:\Всё для мобильных телефонов и КПК\Видео\Saw The Complete Collection (2004-2010)\Saw VI (2009) BDRip.mp4
Format : MPEG-4
Format profile : Base Media
Codec ID : isom
File size : 545 MiB
Duration : 1h 31mn
Overall bit rate mode : Variable
Overall bit rate : 831 Kbps
Encoded date : UTC 2015-06-20 00:44:45
Tagged date : UTC 2015-06-20 00:44:45

Video
ID : 1
Format : AVC
Format/Info : Advanced Video Codec
Format profile : [email protected]
Format settings, CABAC : Yes
Format settings, ReFrames : 4 frames
Codec ID : avc1
Codec ID/Info : Advanced Video Coding
Duration : 1h 31mn
Bit rate : 700 Kbps
Maximum bit rate : 5 640 Kbps
Width : 640 pixels
Height : 360 pixels
Display aspect ratio : 16:9
Frame rate mode : Constant
Frame rate : 23.976 fps
Color space : YUV
Chroma subsampling : 4:2:0
Bit depth : 8 bits
Scan type : Progressive
Bits/(Pixel*Frame) : 0.127
Stream size : 459 MiB (84%)
Title : [email protected]-DEV-rev248-g39d5978-master
Writing library : x264 core 146 r2538 121396c
Encoding settings : cabac=1 / ref=3 / deblock=1:0:0 / analyse=0x3:0x113 / me=hex / subme=7 / psy=1 / psy_rd=1.00:0.00 / mixed_ref=1 / me_range=16 / chroma_me=1 / trellis=1 / 8x8dct=1 / cqm=0 / deadzone=21,11 / fast_pskip=1 / chroma_qp_offset=-2 / threads=6 / lookahead_threads=1 / sliced_threads=0 / nr=0 / decimate=1 / interlaced=0 / bluray_compat=0 / constrained_intra=0 / bframes=3 / b_pyramid=2 / b_adapt=1 / b_bias=0 / direct=1 / weightb=1 / open_gop=0 / weightp=2 / keyint=250 / keyint_min=23 / scenecut=40 / intra_refresh=0 / rc_lookahead=40 / rc=2pass / mbtree=1 / bitrate=700 / ratetol=1.0 / qcomp=0.60 / qpmin=0 / qpmax=69 / qpstep=4 / cplxblur=20.0 / qblur=0.5 / ip_ratio=1.40 / aq=1:1.00
Encoded date : UTC 2015-06-20 00:44:45
Tagged date : UTC 2015-06-20 00:45:20

Audio
ID : 2
Format : AAC
Format/Info : Advanced Audio Codec
Format profile : LC
Codec ID : 40
Duration : 1h 31mn
Bit rate mode : Variable
Bit rate : 128 Kbps
Maximum bit rate : 156 Kbps
Channel(s) : 2 channels
Channel positions : Front: L R
Sampling rate : 48.0 KHz
Compression mode : Lossy
Stream size : 83.9 MiB (15%)
Encoded date : UTC 2015-06-20 00:42:44
Tagged date : UTC 2015-06-20 00:45:20
Пила 3D / Saw 3D
Год выпуска: 2010
Страна: США
Жанр: ужасы, триллер, детектив
Продолжительность: 01:30:11
Перевод: Профессиональный (полное дублирование)
Оригинальная дорожка: Нет
Cубтитры: Нет
Режиссер: Кевин Гротерт / Kevin Greutert
В ролях: Костас Мэндилор, Шон Патрик Флэнери, Тобин Белл, Кэри Элвис, Бетси Расселл, Дин Армстронг, Чэд Донелла, Джина Холден, Наоми Сникус, Ребекка Маршалл

Описание: Жертвы Пилы, выжившие в предыдущих испытаниях, обращаются за психологической помощью к товарищу по несчастью Бобби Дагену. Но когда его собственные темные тайны всплывают на свет, развязывается новая волна террора.

Качество: BDRip
Формат: MP4
Видео: AVC, 640x360 (1:78:1), 700 kbps, 23.976 fps
Аудио 1: Русский, AAC, 2 ch, 48 kHz, 128 kbps [Dub]
x264 [info]: frame I:2584 Avg QP:21.83 size: 26717
x264 [info]: frame P:61135 Avg QP:24.94 size: 5473
x264 [info]: frame B:66020 Avg QP:27.51 size: 993

x264 [total]: encoded 129739 frames, 30.09 fps, 693.73 kb/s
General
Complete name : X:\Всё для мобильных телефонов и КПК\Видео\Saw The Complete Collection (2004-2010)\Saw 3D (2010) BDRip.mp4
Format : MPEG-4
Format profile : Base Media
Codec ID : isom
File size : 537 MiB
Duration : 1h 30mn
Overall bit rate mode : Variable
Overall bit rate : 832 Kbps
Encoded date : UTC 2015-06-18 12:16:30
Tagged date : UTC 2015-06-18 12:16:30

Video
ID : 1
Format : AVC
Format/Info : Advanced Video Codec
Format profile : [email protected]
Format settings, CABAC : Yes
Format settings, ReFrames : 4 frames
Codec ID : avc1
Codec ID/Info : Advanced Video Coding
Duration : 1h 30mn
Bit rate : 700 Kbps
Maximum bit rate : 3 490 Kbps
Width : 640 pixels
Height : 360 pixels
Display aspect ratio : 16:9
Frame rate mode : Constant
Frame rate : 23.976 fps
Color space : YUV
Chroma subsampling : 4:2:0
Bit depth : 8 bits
Scan type : Progressive
Bits/(Pixel*Frame) : 0.127
Stream size : 451 MiB (84%)
Title : [email protected]-DEV-rev248-g39d5978-master
Writing library : x264 core 146 r2538 121396c
Encoding settings : cabac=1 / ref=3 / deblock=1:0:0 / analyse=0x3:0x113 / me=hex / subme=7 / psy=1 / psy_rd=1.00:0.00 / mixed_ref=1 / me_range=16 / chroma_me=1 / trellis=1 / 8x8dct=1 / cqm=0 / deadzone=21,11 / fast_pskip=1 / chroma_qp_offset=-2 / threads=6 / lookahead_threads=1 / sliced_threads=0 / nr=0 / decimate=1 / interlaced=0 / bluray_compat=0 / constrained_intra=0 / bframes=3 / b_pyramid=2 / b_adapt=1 / b_bias=0 / direct=1 / weightb=1 / open_gop=0 / weightp=2 / keyint=250 / keyint_min=23 / scenecut=40 / intra_refresh=0 / rc_lookahead=40 / rc=2pass / mbtree=1 / bitrate=700 / ratetol=1.0 / qcomp=0.60 / qpmin=0 / qpmax=69 / qpstep=4 / cplxblur=20.0 / qblur=0.5 / ip_ratio=1.40 / aq=1:1.00
Encoded date : UTC 2015-06-18 12:16:30
Tagged date : UTC 2015-06-18 12:17:11

Audio
ID : 2
Format : AAC
Format/Info : Advanced Audio Codec
Format profile : LC
Codec ID : 40
Duration : 1h 30mn
Bit rate mode : Variable
Bit rate : 128 Kbps
Maximum bit rate : 158 Kbps
Channel(s) : 2 channels
Channel positions : Front: L R
Sampling rate : 48.0 KHz
Compression mode : Lossy
Stream size : 82.5 MiB (15%)
Encoded date : UTC 2015-06-18 12:14:21
Tagged date : UTC 2015-06-18 12:17:11


Трекер:  [ 20-Июн-2015 14:00 ]

  

Скачать .torrent

Размер .torrent файла 20 KB


Размер: 3.97 GB
Хэш (hash) релиза: 12d141100f14717fab8236c512dbb635d0ccb53e

Еще никто не оставлял запись к записи скачать торрент [VIDEO] Пила: Полное собрание Saw: The Complete Collection . Будь первым!

!Обратная связь