Joe Lynch | Great Rail Restorations S01E01 480p x264-mSD 45 minutes | Rebel: Thief Who ...

Скачать через торрент [VIDEO] Бунтарка Stick It бесплатно русская версия torrent активатор

Статистика раздачи
Размер:  863 MB   |    Зарегистрирован:  3 года   |    .torrent скачан:  40 раз   |   
Раздают:  1  
   
загрузка...
 
Автор Сообщение

Galfimbul

avatar Galfimbul


Бунтарка
Stick It

Год выпуска: 2006
Страна: Германия, США (Kaltenbach Pictures & Company, Spyglass Entertainment, Touchstone Pictures)
Жанр: Драма, комедия, спорт
Продолжительность: 01:38:53
Перевод: Профессиональный (полное дублирование)
Оригинальная дорожка: Есть
Cубтитры: Русские полные, отключаемые
Режиссер: Джессика Бендинджер / Jessica Bendinger
В ролях: Джефф Бриджес, Мисси Перегрим, Ванесса Ленджис, Никки СуХу, Мэдди Керли, Келлан Луц, Джон Патрик Амедори, Мио Дзакула, Светлана Ефремова, Джон Гриз, Джули Уорнер
Описание: Гимнастка Хэйли необычайно талантлива, и тренеры возлагают на нее большие надежды. Одна из главных черт ее характера – упрямость и умение добиваться своей цели. Лишь благодаря своему бойцовскому характеру она добилась таких успехов в спорте. Но в один прекрасный день она поняла, что ей надоело заниматься гимнастикой. Решив пожить как все ее сверстники, она тут же сменила спортзал и брусья на шумную компанию и пиво. Однажды ребята попадают в небольшую переделку криминального характера, и Хэйли задумывается, тот ли путь она выбрала…Фильм о жестоком мире спортивной гимнастики глазами одной гимнастки “бунтарки” которой не нравится нынешняя система и которая пытается исправить и своих подруг гимнасток и даже судей на национальном чемпионате США по гимнастике, что ей с блеском и удается.

Качество: DVDRip (Рип с [url=...4165941]DVD5 (Сжатый)[/url])
Формат: MP4
Видео: AVC, 640x344 (1.85:1), 952 kbps, 25.000 fps
Аудио 1: Русский, AAC, 2 ch, 48 kHz, 128 kbps [Dub]
Аудио 2: Английский, AAC, 2 ch, 48 kHz, 128 kbps [Original]
Для финальной сцены соревнований создатели фильма привлекли десяток известных гимнастов со всего мира; главным тренером-консультантом стал известный спортсмен, двукратный Олимпийский чемпион Барт Коннер, основатель собственной академии.
За три месяца до съемок фильма четыре ведущие актрисы прошли интенсивную спортивную подготовку, под руководством опытных тренеров; девушки занимались гимнастикой по 5-6 часов в день, выполняли упражнения на растяжку, работали с гирями; перед тренерами стояла задача — за минимально короткий срок вывести актрис на средний уровень спортивной подготовки, тренировки продолжались и во время съемочных дней.
x264 [info]: frame I:1566 Avg QP:16.39 size: 37283
x264 [info]: frame P:32858 Avg QP:19.76 size: 10910
x264 [info]: frame B:113901 Avg QP:22.86 size: 2540

x264 [total]: encoded 148325 frames, 16.24 fps, 952.14 kb/s
General
Complete name : [VIDEO] Stick It.2006.DVDRip.x264.640x(semen_52-TNC).mp4
Format : MPEG-4
Format profile : Base Media
Codec ID : isom
File size : 863 MiB
Duration : 1h 38mn
Overall bit rate mode : Variable
Overall bit rate : 1 220 Kbps
Movie name : [VIDEO] Stick It 2006 DVDRip x264 640x(semen_52-TNC)
ContentType : Short Film
Encoded date : UTC 2015-06-19 18:34:49
Tagged date : UTC 2015-06-19 18:36:30
Writing application : MkvToMp4 version: 0.224 (x64)
Comment : Rip by semen_52-TNC

Video
ID : 1
Format : AVC
Format/Info : Advanced Video Codec
Format profile : [email protected]
Format settings, CABAC : Yes
Format settings, ReFrames : 8 frames
Codec ID : avc1
Codec ID/Info : Advanced Video Coding
Duration : 1h 38mn
Bit rate : 952 Kbps
Maximum bit rate : 5 932 Kbps
Width : 640 pixels
Height : 344 pixels
Display aspect ratio : 1.85:1
Frame rate mode : Constant
Frame rate : 25.000 fps
Color space : YUV
Chroma subsampling : 4:2:0
Bit depth : 8 bits
Scan type : Progressive
Bits/(Pixel*Frame) : 0.173
Stream size : 673 MiB (78%)
Writing library : x264 core 130 r2273 b3065e6
Encoding settings : cabac=1 / ref=8 / deblock=1:-2:-1 / analyse=0x3:0x113 / me=esa / subme=9 / psy=1 / psy_rd=1.00:0.15 / mixed_ref=1 / me_range=32 / chroma_me=1 / trellis=2 / 8x8dct=1 / cqm=0 / deadzone=21,11 / fast_pskip=0 / chroma_qp_offset=-2 / threads=12 / lookahead_threads=2 / sliced_threads=0 / nr=0 / decimate=1 / interlaced=0 / bluray_compat=0 / constrained_intra=0 / bframes=6 / b_pyramid=2 / b_adapt=2 / b_bias=0 / direct=1 / weightb=1 / open_gop=0 / weightp=2 / keyint=250 / keyint_min=25 / scenecut=40 / intra_refresh=0 / rc_lookahead=60 / rc=crf / mbtree=1 / crf=19.0 / qcomp=0.60 / qpmin=0 / qpmax=69 / qpstep=4 / ip_ratio=1.40 / aq=1:1.00
Language : English
Encoded date : UTC 2015-06-19 18:34:49
Tagged date : UTC 2015-06-19 18:36:02

Audio #1
ID : 2
Format : AAC
Format/Info : Advanced Audio Codec
Format profile : LC
Codec ID : 40
Duration : 1h 38mn
Bit rate mode : Variable
Bit rate : 128 Kbps
Maximum bit rate : 135 Kbps
Channel(s) : 2 channels
Channel positions : Front: L R
Sampling rate : 48.0 KHz
Compression mode : Lossy
Stream size : 90.5 MiB (10%)
Title : Dub / Dub
Language : Russian
Encoded date : UTC 2015-06-19 18:35:03
Tagged date : UTC 2015-06-19 18:36:02

Audio #2
ID : 3
Format : AAC
Format/Info : Advanced Audio Codec
Format profile : LC
Codec ID : 40
Duration : 1h 38mn
Bit rate mode : Variable
Bit rate : 128 Kbps
Maximum bit rate : 132 Kbps
Channel(s) : 2 channels
Channel positions : Front: L R
Sampling rate : 48.0 KHz
Compression mode : Lossy
Stream size : 90.5 MiB (10%)
Title : Original / Original
Language : English
Encoded date : UTC 2015-06-19 18:35:46
Tagged date : UTC 2015-06-19 18:36:02

Text
ID : 4
Format : Timed Text
Muxing mode : sbtl
Codec ID : tx3g
Duration : 1h 33mn
Bit rate mode : Variable
Bit rate : 114 bps
Stream size : 78.3 KiB (0%)
Title : Full / Full
Language : Russian
Encoded date : UTC 2015-06-19 18:36:02
Tagged date : UTC 2015-06-19 18:36:02


Трекер:  [ 19-Июн-2015 23:00 ]

  

Скачать .torrent

Размер .torrent файла 17 KB


Размер: 863 MB
Хэш (hash) релиза: 4096cbfdcb74f4ecf7a2c7c8f3a70d99e08aae23

Еще никто не оставлял запись к записи скачать торрент [VIDEO] Бунтарка Stick It . Будь первым!

!Обратная связь