Raid Movie Free Download HD Cam Download Raid in HD Cam (698 MB)↓   Raid Movie Free Download HD .An freshman part from claiming a world class cooperation from claiming commandos, rama (Iko Uwais) is educated will hang back same time as much comrades-in-arms try ahead for their mission to bring down a fierce wrongdoing master known as Tama (Ray Sahetapy). However, the team's disguise may be blown, ...
Otros Mundos HDTV 720p AC3 5.1

Скачать через торрент [VIDEO] Из машины Ex Machina бесплатно русская версия torrent активатор

Статистика раздачи
Размер:  1.24 GB   |    Зарегистрирован:  2 года 10 месяцев   |    .torrent скачан:  1476 раз   |   
Раздают:  1  
   
загрузка...
 
Автор Сообщение

Galfimbul

avatar Galfimbul


Из машины
Ex Machina

Год выпуска: 2015
Страна: Великобритания (DNA Films, Film4)
Жанр: Фантастика, драма
Продолжительность: 01:48:01
Перевод 1: Профессиональный (полное дублирование) [BD CEE]
Перевод 2: Авторский (одноголосый, закадровый) [C. Визгунов]
Оригинальная дорожка: Есть
Cубтитры: Русские полные, отключаемые
Режиссер: Алекс Гарленд / Alex Garland
В ролях: Домналл Глисон, Кори Джонсон, Оскар Айзек, Алисия Викандер, Соноя Мизуно, Симара А. Темплмен, Тиффани Писани, Элина Алминас
Описание: В центре сюжета - молодой человек, которого нанимает миллиардер, сделавший состояние на высокотехнологичных разработках. Задача работника - провести неделю в удаленном местечке, тестируя женщину-робота с искусственным интеллектом.

Качество: HDRip (Рип с BDRip 1080p)
Формат: MP4
Видео: AVC, 960x400 (2.40:1), 1250 kbps, 23.976 fps
Аудио 1: Русский, AAC, 2 ch, 48 kHz, 128 kbps [Dub, BD CEE]
Аудио 2: Русский, AAC, 2 ch, 48 kHz, 128 kbps [AVO, С. Визгунов]
Аудио 3: Английский, AAC, 2 ch, 48 kHz, 128 kbps [Original]
За перевод С. Визгунова спасибо пользователям форума E180: fen, ultrajeka, SJC, luka69, Nadoelo, Tagansky, carnivale, masta, chontvari, Daniel Rock, fryak, Petro0999, ylnian1986, Loki1982, Эдуард, Rayan, xerman13, MyxAmoP
Фелисити Джонс рассматривалась на роль Авы.
x264 [info]: frame I:1135 Avg QP:12.66 size: 71019
x264 [info]: frame P:28362 Avg QP:15.73 size: 16270
x264 [info]: frame B:125888 Avg QP:18.15 size: 3736

x264 [total]: encoded 155385 frames, 6.88 fps, 1249.62 kb/s
General
Complete name : [VIDEO] Ex.Machina.2015.HDRip.x264.960x(semen_52-TNC).mp4
Format : MPEG-4
Format profile : Base Media
Codec ID : isom
File size : 1.24 GiB
Duration : 1h 48mn
Overall bit rate mode : Variable
Overall bit rate : 1 648 Kbps
Movie name : [VIDEO] Ex Machina 2015 HDRip x264 960x(semen_52-TNC)
ContentType : Short Film
Encoded date : UTC 2015-06-18 18:47:18
Tagged date : UTC 2015-06-18 18:49:10
Writing application : MkvToMp4 version: 0.224 (x64)
Comment : Rip by semen_52-TNC

Video
ID : 1
Format : AVC
Format/Info : Advanced Video Codec
Format profile : [email protected]
Format settings, CABAC : Yes
Format settings, ReFrames : 9 frames
Codec ID : avc1
Codec ID/Info : Advanced Video Coding
Duration : 1h 48mn
Bit rate : 1 250 Kbps
Maximum bit rate : 22.4 Mbps
Width : 960 pixels
Height : 400 pixels
Display aspect ratio : 2.40:1
Frame rate mode : Constant
Frame rate : 23.976 fps
Color space : YUV
Chroma subsampling : 4:2:0
Bit depth : 8 bits
Scan type : Progressive
Bits/(Pixel*Frame) : 0.136
Stream size : 965 MiB (76%)
Writing library : x264 core 130 r2273 b3065e6
Encoding settings : cabac=1 / ref=9 / deblock=1:-3:-3 / analyse=0x3:0x113 / me=esa / subme=9 / psy=1 / psy_rd=1.00:0.15 / mixed_ref=1 / me_range=32 / chroma_me=1 / trellis=2 / 8x8dct=1 / cqm=0 / deadzone=21,11 / fast_pskip=0 / chroma_qp_offset=-2 / threads=12 / lookahead_threads=2 / sliced_threads=0 / nr=0 / decimate=1 / interlaced=0 / bluray_compat=0 / constrained_intra=0 / bframes=9 / b_pyramid=2 / b_adapt=2 / b_bias=0 / direct=1 / weightb=1 / open_gop=0 / weightp=2 / keyint=250 / keyint_min=25 / scenecut=40 / intra_refresh=0 / rc_lookahead=60 / rc=crf / mbtree=1 / crf=17.0 / qcomp=0.60 / qpmin=0 / qpmax=69 / qpstep=4 / ip_ratio=1.40 / aq=1:1.00
Language : English
Encoded date : UTC 2015-06-18 18:47:18
Tagged date : UTC 2015-06-18 18:48:12
Color primaries : BT.709
Transfer characteristics : BT.709
Matrix coefficients : BT.709
Color range : Limited

Audio #1
ID : 2
Format : AAC
Format/Info : Advanced Audio Codec
Format profile : LC
Codec ID : 40
Duration : 1h 48mn
Bit rate mode : Variable
Bit rate : 128 Kbps
Maximum bit rate : 135 Kbps
Channel(s) : 2 channels
Channel positions : Front: L R
Sampling rate : 48.0 KHz
Compression mode : Lossy
Stream size : 98.9 MiB (8%)
Title : Dub / Dub
Language : Russian
Encoded date : UTC 2015-06-18 18:47:36
Tagged date : UTC 2015-06-18 18:48:12

Audio #2
ID : 3
Format : AAC
Format/Info : Advanced Audio Codec
Format profile : LC
Codec ID : 40
Duration : 1h 48mn
Bit rate mode : Variable
Bit rate : 128 Kbps
Maximum bit rate : 135 Kbps
Channel(s) : 2 channels
Channel positions : Front: L R
Sampling rate : 48.0 KHz
Compression mode : Lossy
Stream size : 98.9 MiB (8%)
Title : AVO Vizgunov / AVO Vizgunov
Language : Russian
Encoded date : UTC 2015-06-18 18:47:43
Tagged date : UTC 2015-06-18 18:48:12

Audio #3
ID : 4
Format : AAC
Format/Info : Advanced Audio Codec
Format profile : LC
Codec ID : 40
Duration : 1h 48mn
Bit rate mode : Variable
Bit rate : 128 Kbps
Maximum bit rate : 135 Kbps
Channel(s) : 2 channels
Channel positions : Front: L R
Sampling rate : 48.0 KHz
Compression mode : Lossy
Stream size : 98.9 MiB (8%)
Title : Original / Original
Language : English
Encoded date : UTC 2015-06-18 18:48:05
Tagged date : UTC 2015-06-18 18:48:12

Text
ID : 5
Format : Timed Text
Muxing mode : sbtl
Codec ID : tx3g
Duration : 1h 47mn
Bit rate mode : Variable
Bit rate : 77 bps
Stream size : 60.9 KiB (0%)
Title : Full / Full
Language : Russian
Encoded date : UTC 2015-06-18 18:48:12
Tagged date : UTC 2015-06-18 18:48:12


Трекер:  [ 18-Июн-2015 21:00 ]

  

Скачать .torrent

Размер .torrent файла 13 KB


Размер: 1.24 GB
Хэш (hash) релиза: 92f09fffca3f90663758dea8cbea5b7854a715c7

Торренты, похожие на [VIDEO] Из машины Ex Machina скачать торрент

Форум Название Автор Размер S L Добавлен
Видео (Фильмы/Клипы) ·· [VIDEO] Из машины / Ex Machina (Алекс Гарленд / Alex Garland) [2015, фантастика, драма, HDRip] [MP4, 640x] Galfimbul 728431758695 MB 0 0 1431899699

00:54

18-Май-15

Еще никто не оставлял запись к записи скачать торрент [VIDEO] Из машины Ex Machina . Будь первым!

!Обратная связь