Dedication season 01 episode 15
VA - Soundjungle Hits 2018 (2018) MP3

Скачать через торрент [VIDEO] Второй шанс Danny Collins бесплатно русская версия torrent активатор

Статистика раздачи
Размер:  828 MB   |    Зарегистрирован:  2 года 10 месяцев   |    .torrent скачан:  37 раз   |   
Раздают:  1  
   
загрузка...
 
Автор Сообщение

Galfimbul

avatar Galfimbul


Второй шанс
Danny Collins

Год выпуска: 2015
Страна: США (Big Indie Pictures, ShivHans Pictures)
Жанр: Драма, комедия, музыка
Продолжительность: 01:46:27
Перевод: Профессиональный (полное дублирование) iTunes
Оригинальная дорожка: Нет
Cубтитры: Нет
Режиссер: Дэн Фогельман / Dan Fogelman
В ролях: Аль Пачино, Аннетт Бенинг, Дженнифер Гарнер, Бобби Каннавейл, Кристофер Пламмер, Мелисса Беноист, Ник Офферман, Джош Пек, Арти Манн, Катарина Час
Описание: Когда-то песни Дэнни Коллинза обожал весь мир. Однако уже много лет он ничего не пишет, почивая на лаврах былой славы. Но однажды музыканта находит адресованное ему много лет назад письмо от …Джона Леннона. И это переворачивает всю его жизнь.

Качество: WEB-DLRip (Рип с WEB-DL 1080p)
Формат: MP4
Видео: AVC, 960x400 (2.40:1), 951 kbps, 23.976 fps
Аудио: Русский, AAC, 2 ch, 48 kHz, 128 kbps [Dub, iTunes]
Концертные кадры Дэнни Коллинза в начале фильма были сняты на концерте группы Chicago в Лос-Анджелесе.
Источником вдохновения для создателей фильма стала история певца Стива Тилстона (Steve Tilston), узнавшего о существовании письма, которое написал ему сам Джон Леннон, только через 34 года после того, как оно было написано.
Первоначально роли в фильме должны были получить Джулианна Мур и Джереми Реннер, но после проблем с финансированием вместо них взяли Аннетт Бенинг и Бобби Каннавале.
До 2011 года фильмом занималась студия Warner Bros, а на главную роль рассматривался Стив Карелл.
x264 [info]: frame I:1380 Avg QP:14.76 size: 60880
x264 [info]: frame P:38867 Avg QP:17.88 size: 11686
x264 [info]: frame B:113053 Avg QP:21.42 size: 1958

x264 [total]: encoded 153300 frames, 12.80 fps, 951.35 kb/s
General
Complete name : [VIDEO] Vtoroj.shans.2015.WEB-DLRip.x264.960x(semen_52-TNC).mp4
Format : MPEG-4
Format profile : Base Media
Codec ID : isom
File size : 828 MiB
Duration : 1h 46mn
Overall bit rate mode : Variable
Overall bit rate : 1 087 Kbps
Movie name : [VIDEO] Vtoroj shans 2015 WEB-DLRip x264 960x(semen_52-TNC)
ContentType : Short Film
Encoded date : UTC 2015-06-18 03:39:05
Tagged date : UTC 2015-06-18 03:40:04
Writing application : MkvToMp4 version: 0.224 (x64)
Comment : Rip by semen_52-TNC

Video
ID : 1
Format : AVC
Format/Info : Advanced Video Codec
Format profile : [email protected]
Format settings, CABAC : Yes
Format settings, ReFrames : 8 frames
Codec ID : avc1
Codec ID/Info : Advanced Video Coding
Duration : 1h 46mn
Bit rate : 951 Kbps
Maximum bit rate : 5 195 Kbps
Width : 960 pixels
Height : 400 pixels
Display aspect ratio : 2.40:1
Frame rate mode : Constant
Frame rate : 24.000 fps
Color space : YUV
Chroma subsampling : 4:2:0
Bit depth : 8 bits
Scan type : Progressive
Bits/(Pixel*Frame) : 0.103
Stream size : 724 MiB (87%)
Writing library : x264 core 130 r2273 b3065e6
Encoding settings : cabac=1 / ref=8 / deblock=1:-3:-3 / analyse=0x3:0x113 / me=esa / subme=9 / psy=1 / psy_rd=1.00:0.15 / mixed_ref=1 / me_range=32 / chroma_me=1 / trellis=2 / 8x8dct=1 / cqm=0 / deadzone=21,11 / fast_pskip=0 / chroma_qp_offset=-2 / threads=12 / lookahead_threads=2 / sliced_threads=0 / nr=0 / decimate=1 / interlaced=0 / bluray_compat=0 / constrained_intra=0 / bframes=7 / b_pyramid=2 / b_adapt=2 / b_bias=0 / direct=1 / weightb=1 / open_gop=0 / weightp=2 / keyint=250 / keyint_min=25 / scenecut=40 / intra_refresh=0 / rc_lookahead=60 / rc=crf / mbtree=1 / crf=19.0 / qcomp=0.60 / qpmin=0 / qpmax=69 / qpstep=4 / ip_ratio=1.40 / aq=1:1.00
Language : English
Encoded date : UTC 2015-06-18 03:39:05
Tagged date : UTC 2015-06-18 03:39:44
Color primaries : BT.709
Transfer characteristics : BT.709
Matrix coefficients : BT.709
Color range : Limited

Audio
ID : 2
Format : AAC
Format/Info : Advanced Audio Codec
Format profile : LC
Codec ID : 40
Duration : 1h 46mn
Bit rate mode : Variable
Bit rate : 128 Kbps
Maximum bit rate : 135 Kbps
Channel(s) : 2 channels
Channel positions : Front: L R
Sampling rate : 48.0 KHz
Compression mode : Lossy
Stream size : 97.5 MiB (12%)
Title : Dub iTunes / Dub iTunes
Language : Russian
Encoded date : UTC 2015-06-18 03:39:17
Tagged date : UTC 2015-06-18 03:39:44


Трекер:  [ 18-Июн-2015 20:30 ]

  

Скачать .torrent

Размер .torrent файла 16 KB


Размер: 828 MB
Хэш (hash) релиза: fc6359fec18dd863ea7482f2943a578611d14841

Торренты, похожие на [VIDEO] Второй шанс Danny Collins скачать торрент

Форум Название Автор Размер S L Добавлен
Видео (Фильмы/Клипы) ·· [VIDEO] Второй шанс / Danny Collins (Дэн Фогельман / Dan Fogelman) [2015, драма, BDRip] [MP4, 1280x] Galfimbul 15595972971.45 GB 0 0 1478124435

01:07

3-Ноя-16

Еще никто не оставлял запись к записи скачать торрент [VIDEO] Второй шанс Danny Collins . Будь первым!

!Обратная связь